[MINI Super-HQ] Mortal Kombat (2021) มอร์ทัล คอมแบท [1080p] [พากย์ไทย 5.1 + เสียงอังกฤษ DTS] [บรรยายไทย + อังกฤษ] [เสียงไทย + ซับไทย] [DOSYAUPLOAD]

0

โหลดหนัง Mortal Kombat (2021) มอร์ทัล คอมแบท

Mortal Kombat (2021) 110min | Action, Adventure, Fantasy, Sci-Fi, Thriller | April 23, 2021 (United States) Summary: MMA fighter Cole Young seeks out Earth's greatest champions in order to stand against the enemies of Outworld in a high stakes battle for the universe.
Countries: United StatesLanguages: English, Japanese, Chinese

เรื่องย่อ Mortal Kombat (2021) มอร์ทัล คอมแบท

เรื่องราวของ โคล ยัง (ลูอิส ถัน) นักสู้ MMA ผู้คุ้นชินกับการชกต่อยเพื่อแลกเงินแต่ไม่เคยรู้เรื่องราวภูมิหลังของตัวเอง และไม่รู้ว่าทำไมจักรพรรติชางจงแห่งเอาต์เวิลด์ถึงต้องส่ง ซับซีโร่ (โจ ทาสลิม) นักรบมือหนึ่งผู้ใช้เวทย์น้ำแข็งและศาสตร์ความหนาวมาไล่ล่า โคล ให้สิ้นซากด้วยความกลัวว่าครอบครัวของเขาจะไม่ปลอดภัยโคล จึงออกตามหา ซอนย่า เบลด (เจสสิก้า แม็คนามี) ตามคำแนะนำของ แจ็กซ์ (เมห์แคด บรู๊คส์) นายพันหน่วยรบพิเศษผู้มีปานประหลาดรูปมังกรตั้งแต่เกิดเช่นเดียวกับ โคล จากนั้น โคล ก็ได้พบว่าเขานั้นอยู่ที่วิหารของ ลอร์ดไรเด็น (ทาดาโนบุ อาซาโนะ) เทพเจ้าอาวุโสผู้คุ้มครองเอิร์ธรีล์ม และมอบที่ลี้ภัยให้กับผู้คนที่มีปานรูปเดียวกันที่นั่น โคล ได้ฝึกวิทยายุทธกับนักรบผู้คร่ำหวอดในสังเวียน หลิวกัง (ลูดี้ หลิน), คุงลาว (แม็กซ์ หวง) และทหารรับจ้างเถื่อน เคโน่ (จอช ลอว์สัน) เพื่อต่อสู้เคียงข้างเหล่าแชมเปี้ยนผู้ยิ่งใหญ่ของโลกมนุษย์กับศัตรูจาก เอาต์เวิลด์ ในศึกครั้งสำคัญที่มีจักรวาลเป็นเดิมพันแต่ โคล จะสามารถเค้นพลังลึกลับที่ซ่อนอยู่ภายในร่างกายและจิตวิญญาณของเขาออกมาได้หรือไม่แล้วจะทันเวลาช่วยเหลือครอบครัวของเขา และหยุดการรุกของเอาต์เวิลด์ได้หรือเปล่า?!!!

Complete name : [MINI Super-HQ]_Mortal.Kombat.2021.1080p.BrRip.DTS.x264.One2loadup.com.mkv
Format : Matroska
Format version : Version 4
File size : 3.76 GiB
Duration : 1 h 50 min
Overall bit rate : 4 893 kb/s
Movie name : [MINI Super-HQ]_Mortal.Kombat.2021.1080p.BrRip.DTS.x264.One2loadup.com
Encoded date : UTC 2021-09-27 20:19:56
Writing application : mkvmerge v9.8.0 (‘Kuglblids’) 64bit
Writing library : libebml v1.3.4 + libmatroska v1.4.5

Video
ID : 1
Format : AVC
Format/Info : Advanced Video Codec
Format profile : [email protected]
Format settings : CABAC / 4 Ref Frames
Format settings, CABAC : Yes
Format settings, Reference : 4 frames
Codec ID : V_MPEG4/ISO/AVC
Duration : 1 h 50 min
Bit rate : 3 600 kb/s
Width : 1 920 pixels
Height : 804 pixels
Display aspect ratio : 2.40:1
Frame rate mode : Constant
Frame rate : 23.976 (24000/1001) FPS
Color space : YUV
Chroma subsampling : 4:2:0
Bit depth : 8 bits
Scan type : Progressive
Bits/(Pixel*Frame) : 0.097
Stream size : 2.77 GiB (74%)
Title : [MINI Super-HQ]_Mortal.Kombat.2021.1080p.BrRip.DTS.x264.One2loadup.com
Writing library : x264 core 146 r2538 121396c
Encoding settings : cabac=1 / ref=5 / deblock=1:-3:-3 / analyse=0x3:0x133 / me=tesa / subme=11 / psy=1 / psy_rd=1.00:0.15 / mixed_ref=1 / me_range=48 / chroma_me=1 / trellis=2 / 8x8dct=1 / cqm=0 / deadzone=21,11 / fast_pskip=1 / chroma_qp_offset=-3 / threads=54 / lookahead_threads=4 / sliced_threads=0 / nr=0 / decimate=1 / interlaced=0 / bluray_compat=1 / constrained_intra=0 / bframes=3 / b_pyramid=1 / b_adapt=2 / b_bias=0 / direct=3 / weightb=1 / open_gop=0 / weightp=1 / keyint=250 / keyint_min=1 / scenecut=40 / intra_refresh=0 / rc_lookahead=60 / rc=2pass / mbtree=1 / bitrate=3600 / ratetol=1.0 / qcomp=0.60 / qpmin=0 / qpmax=69 / qpstep=4 / cplxblur=20.0 / qblur=0.5 / ip_ratio=1.40 / aq=1:1.30
Language : English
Default : Yes
Forced : No

Audio #1
ID : 2
Format : AC-3
Format/Info : Audio Coding 3
Commercial name : Dolby Digital
Codec ID : A_AC3
Duration : 1 h 50 min
Bit rate mode : Constant
Bit rate : 448 kb/s
Channel(s) : 6 channels
Channel layout : L R C LFE Ls Rs
Sampling rate : 48.0 kHz
Frame rate : 31.250 FPS (1536 SPF)
Compression mode : Lossy
Stream size : 353 MiB (9%)
Title : Thai 5.1 Master
Language : Thai
Service kind : Complete Main
Default : Yes
Forced : Yes

Audio #2
ID : 3
Format : DTS
Format/Info : Digital Theater Systems
Codec ID : A_DTS
Duration : 1 h 50 min
Bit rate mode : Constant
Bit rate : 755 kb/s
Channel(s) : 6 channels
Channel layout : C L R Ls Rs LFE
Sampling rate : 48.0 kHz
Frame rate : 93.750 FPS (512 SPF)
Bit depth : 24 bits
Compression mode : Lossy
Stream size : 594 MiB (15%)
Title : English DTS-5.1
Language : English
Default : No
Forced : No

Text #1
ID : 4
Format : PGS
Codec ID : S_HDMV/PGS
Codec ID/Info : Picture based subtitle format used on BDs/HD-DVDs
Duration : 1 h 49 min
Bit rate : 23.4 kb/s
Count of elements : 1934
Stream size : 18.4 MiB (0%)
Title : Thai 1080p PGS
Language : Thai
Default : Yes
Forced : Yes

Text #2
ID : 5
Format : VobSub
Codec ID : S_VOBSUB
Codec ID/Info : Picture based subtitle format used on DVDs
Duration : 1 h 49 min
Bit rate : 5 486 b/s
Count of elements : 965
Stream size : 4.31 MiB (0%)
Title : Thai 1080p
Language : Thai
Default : No
Forced : No

Text #3
ID : 6
Format : PGS
Codec ID : S_HDMV/PGS
Codec ID/Info : Picture based subtitle format used on BDs/HD-DVDs
Duration : 1 h 49 min
Bit rate : 22.6 kb/s
Count of elements : 1934
Stream size : 17.8 MiB (0%)
Title : Thai 1080p Out PGS
Language : Thai
Default : No
Forced : No

Text #4
ID : 7
Format : VobSub
Codec ID : S_VOBSUB
Codec ID/Info : Picture based subtitle format used on DVDs
Duration : 1 h 49 min
Bit rate : 5 258 b/s
Count of elements : 965
Stream size : 4.13 MiB (0%)
Title : Thai 1080p Out
Language : Thai
Default : No
Forced : No

Text #5
ID : 8
Format : VobSub
Codec ID : S_VOBSUB
Codec ID/Info : Picture based subtitle format used on DVDs
Duration : 1 h 49 min
Bit rate : 7 450 b/s
Count of elements : 965
Stream size : 5.86 MiB (0%)
Title : Thai 1080p Big [Yellow]
Language : Thai
Default : No
Forced : No

Text #6
ID : 9
Format : PGS
Codec ID : S_HDMV/PGS
Codec ID/Info : Picture based subtitle format used on BDs/HD-DVDs
Duration : 1 h 41 min
Bit rate : 28.4 kb/s
Count of elements : 2740
Stream size : 20.6 MiB (1%)
Title : English PGS
Language : English
Default : No
Forced : No

Text #7
ID : 10
Format : UTF-8
Codec ID : S_TEXT/UTF8
Codec ID/Info : UTF-8 Plain Text
Duration : 1 h 27 min
Bit rate : 40 b/s
Count of elements : 998
Stream size : 26.0 KiB (0%)
Title : English SRT
Language : English
Default : No
Forced : No

Menu
00:00:00.000 : en:00:00:00.000
00:02:34.863 : en:00:02:34.863
00:07:25.403 : en:00:07:25.403
00:12:53.773 : en:00:12:53.773
00:19:13.569 : en:00:19:13.569
00:27:24.893 : en:00:27:24.893
00:34:47.669 : en:00:34:47.669
00:42:14.073 : en:00:42:14.073
00:47:39.607 : en:00:47:39.607
00:56:39.605 : en:00:56:39.605
01:05:49.571 : en:01:05:49.571
01:13:04.213 : en:01:13:04.213
01:19:23.258 : en:01:19:23.258
01:27:17.774 : en:01:27:17.774
01:35:45.031 : en:01:35:45.031
01:38:58.933 : en:01:38:58.933

DOWNLOAD


PART01 |||| PART02 |||| PART03 |||| PART04

PART01 |||| PART02 |||| PART03 |||| PART04

PART01 |||| PART02 |||| PART03 |||| PART04

PART01 |||| PART02 |||| PART03 |||| PART04

PART01 |||| PART02 |||| PART03 |||| PART04


Leave A Reply

อีเมล์ของคุณจะไม่แสดงให้เห็น Your email address will not be published.

%d bloggers like this: