[MINI Super-HQ] Monsters vs. Aliens (2009) มอนสเตอร์ ปะทะ เอเลี่ยน [1080p] [พากย์ไทย 5.1 + เสียงอังกฤษ DTS] [บรรยายอังกฤษ] [เสียงไทย + ซับอังกฤษ] [PANDAFILE]

2

โหลดหนัง Monsters vs. Aliens (2009) มอนสเตอร์ ปะทะ เอเลี่ยน

Monsters vs. Aliens | March 27, 2009 (United States) Summary: A woman transformed into a giant after she is struck by a meteorite on her wedding day becomes part of a team of monsters sent in by the U.S. government to defeat an alien mastermind trying ... Read all
Countries: United StatesLanguages: English, Portuguese

เรื่องย่อ Monsters vs. Aliens (2009) มอนสเตอร์ ปะทะ เอเลี่ยน

เมื่อสาวแคลิฟอร์เนีย ซูซาน เมอร์ฟี่ (รีส วิเธอร์สปูน) โดนดาวตกที่เต็มไปด้วยสารเหนียวข้นจากนอกโลกพุ่งเข้าชนในวันแต่งงานของเธอ ตัวเธอขยายใหญ่ขึ้นอย่างไม่รู้สาเหตุจนมีส่วนสูงถึง 49 ฟุต 11 นิ้ว ทางกองทัพออกปฏิบัติการทันที ซูซาน ถูกจับตัวไปไว้ในฐานลับของรัฐบาล ที่นั่นเธอได้รับการตั้งชื่อใหม่ว่า ไจนอร์มิก้า และเธอต้องเข้าร่วมกลุ่มตัวประหลาดที่โดดเหยียดหยาม อันประกอบไปด้วย ดร.ค๊อกโรช(ฮิวจ์ ลอรี่) ผู้แสนปราดเปรื่อง แต่มีศีรษะเป็นแมลงสาบ , มิสซิ่งลิงค์(วิลล์ อาร์เน็ตต์) ซึ่งเป็นครึ่งลิงครึ่งปลา , บ๊อบ(เซ็ธ โรเก้น) มนุษย์เจลาตินที่ฆ่าไม่ตาย และหนอนน้อยตัวขนาด 350 ฟุตที่ชื่ออินเซ็คโทซอรัส อย่างไรก็ดีการโดนจองจำของพวกเขาถูกทอนให้สั้นลง เมื่อหุ่นยนต์ต่างดาวลึกลับร่อนลงจอดบนโลก และเริ่มโจมตีอเมริกาในวินาทีแห่งความสิ้นหวัง ประธานาธิบดี (สตีเฟ่น โคลเบิร์ต) ได้ รับการเกลี้ยกล่อมให้ขอความช่วยเหลือจากกลุ่มตัวประหลาดที่มีความหลากหลาย เพื่อให้พวกเขาต่อสู้กับหุ่นยนต์ต่างดาว และช่วยโลกให้พ้นจากการโดนทำลายล้างครั้งใหญ่.

Complete name : [MINI Super-HQ]_Monsters.Vs.Aliens.2009.1080p.BrRip.x264.One2loadup.com.mkv
Format : Matroska
Format version : Version 4 / Version 2
File size : 4.19 GiB
Duration : 1 h 34 min
Overall bit rate : 6 352 kb/s
Movie name : [MINI Super-HQ]_Monsters.Vs.Aliens.2009.1080p.BrRip.x264.One2loadup.com
Encoded date : UTC 2016-12-31 17:14:59
Writing application : mkvmerge v6.0.0 (‘Coming Up For Air’) built on Jan 20 2013 09:52:00
Writing library : libebml v1.3.0 + libmatroska v1.4.0

Video
ID : 1
Format : AVC
Format/Info : Advanced Video Codec
Format profile : [email protected]5
Format settings, CABAC : Yes
Format settings, RefFrames : 7 frames
Codec ID : V_MPEG4/ISO/AVC
Duration : 1 h 34 min
Bit rate : 5 200 kb/s
Width : 1 920 pixels
Height : 816 pixels
Display aspect ratio : 2.35:1
Frame rate mode : Constant
Frame rate : 23.976 (24000/1001) FPS
Color space : YUV
Chroma subsampling : 4:2:0
Bit depth : 8 bits
Scan type : Progressive
Bits/(Pixel*Frame) : 0.138
Stream size : 3.35 GiB (80%)
Title : [MINI Super-HQ]_Monsters.Vs.Aliens.2009.1080p.BrRip.x264.One2loadup.com
Writing library : x264 core 119
Encoding settings : cabac=1 / ref=7 / deblock=1:-3:-3 / analyse=0x3:0x133 / me=umh / subme=11 / psy=1 / psy_rd=1.00:0.00 / mixed_ref=1 / me_range=128 / chroma_me=1 / trellis=2 / 8x8dct=1 / cqm=0 / deadzone=21,11 / fast_pskip=1 / chroma_qp_offset=-2 / threads=12 / sliced_threads=0 / nr=0 / decimate=1 / interlaced=0 / bluray_compat=0 / constrained_intra=0 / bframes=8 / b_pyramid=2 / b_adapt=2 / b_bias=0 / direct=3 / weightb=1 / open_gop=0 / weightp=2 / keyint=240 / keyint_min=24 / scenecut=40 / intra_refresh=0 / rc_lookahead=100 / rc=2pass / mbtree=1 / bitrate=5200 / ratetol=1.0 / qcomp=0.60 / qpmin=3 / qpmax=69 / qpstep=4 / cplxblur=20.0 / qblur=0.5 / ip_ratio=1.40 / aq=1:1.00
Language : English
Default : Yes
Forced : No
Color range : Limited
Color primaries : BT.709
Transfer characteristics : BT.709
Matrix coefficients : BT.709

Audio #1
ID : 2
Format : DTS
Format/Info : Digital Theater Systems
Mode : 16
Format settings, Endianness : Big
Codec ID : A_DTS
Duration : 1 h 34 min
Bit rate mode : Constant
Bit rate : 755 kb/s
Channel(s) : 6 channels
Channel positions : Front: L C R, Side: L R, LFE
Sampling rate : 48.0 kHz
Frame rate : 93.750 FPS (512 SPF)
Bit depth : 24 bits
Compression mode : Lossy
Delay relative to video : 11 ms
Stream size : 509 MiB (12%)
Title : Eng
Language : English
Default : Yes
Forced : No

Audio #2
ID : 3
Format : AC-3
Format/Info : Audio Coding 3
Format settings, Endianness : Big
Codec ID : A_AC3
Duration : 1 h 34 min
Bit rate mode : Constant
Bit rate : 384 kb/s
Channel(s) : 6 channels
Channel positions : Front: L C R, Side: L R, LFE
Sampling rate : 48.0 kHz
Frame rate : 31.250 FPS (1536 SPF)
Bit depth : 16 bits
Compression mode : Lossy
Stream size : 259 MiB (6%)
Title : Th
Language : Thai
Service kind : Complete Main
Default : No
Forced : No

Text #1
ID : 4
Format : UTF-8
Codec ID : S_TEXT/UTF8
Codec ID/Info : UTF-8 Plain Text
Title : Eng
Language : English
Default : Yes
Forced : No

Text #2
ID : 5
Format : VobSub
Muxing mode : zlib
Codec ID : S_VOBSUB
Codec ID/Info : Picture based subtitle format used on DVDs
Title : Chi
Language : Chinese
Default : No
Forced : No

Text #3
ID : 6
Format : UTF-8
Codec ID : S_TEXT/UTF8
Codec ID/Info : UTF-8 Plain Text
Title : Cze
Language : Czech
Default : No
Forced : No

Text #4
ID : 7
Format : UTF-8
Codec ID : S_TEXT/UTF8
Codec ID/Info : UTF-8 Plain Text
Title : Fre
Language : French
Default : No
Forced : No

Text #5
ID : 8
Format : UTF-8
Codec ID : S_TEXT/UTF8
Codec ID/Info : UTF-8 Plain Text
Title : Ger
Language : German
Default : No
Forced : No

Text #6
ID : 9
Format : UTF-8
Codec ID : S_TEXT/UTF8
Codec ID/Info : UTF-8 Plain Text
Title : Greek
Language : Greek
Default : No
Forced : No

Text #7
ID : 10
Format : UTF-8
Codec ID : S_TEXT/UTF8
Codec ID/Info : UTF-8 Plain Text
Title : Ita
Language : Italian
Default : No
Forced : No

Text #8
ID : 11
Format : VobSub
Muxing mode : zlib
Codec ID : S_VOBSUB
Codec ID/Info : Picture based subtitle format used on DVDs
Title : Korean
Language : Korean
Default : No
Forced : No

Text #9
ID : 12
Format : VobSub
Muxing mode : zlib
Codec ID : S_VOBSUB
Codec ID/Info : Picture based subtitle format used on DVDs
Title : Rusian
Language : Russian
Default : No
Forced : No

Text #10
ID : 13
Format : UTF-8
Codec ID : S_TEXT/UTF8
Codec ID/Info : UTF-8 Plain Text
Title : Spa
Language : Spanish
Default : No
Forced : No

 

DOWNLOAD


PART01 |||| PART02 |||| PART03 |||| PART04 |||| PART05

PART01 |||| PART02 |||| PART03 |||| PART04 |||| PART05

PART01 |||| PART02 |||| PART03 |||| PART04 |||| PART05

PART01 |||| PART02 |||| PART03 |||| PART04 |||| PART05

PART01 |||| PART02 |||| PART03 |||| PART04 |||| PART05


2 Comments
  1. Apec Deff
    Apec Deff says

    All files seem missing, please kindly fix them.

    1. admin
      admin says

      Edit successfully แก้แล้ว

Leave A Reply

อีเมล์ของคุณจะไม่แสดงให้เห็น Your email address will not be published.

%d bloggers like this: