[MINI Super-HQ] Mojin: The Lost Legend (2015) ล่าขุมทรัพย์ลึกใต้โลก [1080p] [พากย์ไทย 5.1 + เสียงจีน DTS] [บรรยายไทย + อังกฤษ] [เสียงไทย + ซับไทย] [PANDAFILE]

5

โหลดหนัง Mojin: The Lost Legend (2015) ล่าขุมทรัพย์ลึกใต้โลก

Mojin: The Lost Legend | December 18, 2015 (United States) Summary: In 1969 PRChina, two men survive a supernatural tomb. They later become tomb raiders with Shirley/Shu Qi. 20 years later in NYC, one is hired to find that tomb again and the 2 friends follow... Read all
Countries: ChinaLanguages: Mandarin, Hindi, English

เรื่องย่อ Mojin: The Lost Legend (2015) ล่าขุมทรัพย์ลึกใต้โลก

นิวยอร์ก ซิตี้ ปี 1988 หูป๊าอิและหวังไข่เฉวียน อดีตนักขุดสุสานคนดัง ตอนนี้มาขายวัตถุโบราณอยู่ข้างถนนในนครแห่งนี้ ระหว่างการปฏิวัติทางวัฒนธรรม สองสหายเป็นนักศึกษาที่ถูกส่งไปยังชนบทในเขตปกครองตนเองมองโกเลียใน ที่นั่น พวกเขาได้สานสายสัมพันธ์หลังจากได้เห็นการเสียชีวิตของเพื่อนนักศึกษา ติงสือเถียน คนงาม ในนิวยอร์ก พวกเขาที่ถูกตำรวจตรวจคนเข้าเมืองไล่ตามจับ ได้รับการช่วยเหลือจากเชอร์รี่ หยาง อดีตคู่หูในการผจญภัยของพวกเขา

ด้วยความต้องการจะใช้หนี้ หวังไข่เฉวียนกลับไปเขตปกครองตนเองมองโกเลียในเพื่อทำงานให้กับบริษัทเหมืองที่ทำธุรกิจลับ ๆ ล่อ ๆ ในตอนที่หูป๊าอิและเชอร์รี่ หยางรู้แผนการของเขา พวกเขาก็บินกลับไปจีนเพื่อคุ้มครองเพื่อนผู้มุทะลุของพวกเขา ระหว่างทางพวกเขาได้รู้ว่าบริษัทเหมืองแร่นี้เป็นลัทธิทางศาสนาภายใต้การบงการของซิสเตอร์หงผู้ลึกลับ เมื่อหวังไข่เฉวียนรู้ที่ตั้งสุสาน เขาก็ก้าวเข้าสู่เขาวงกตใต้ดินกับสมาชิกลัทธิและบอดี้การ์ดของพวกเขา แต่การก้าวเข้าสู่สุสานของพวกเขากลับไปปลุกการทำงานของกับดัก ปลดปล่อยพิษร้ายที่เปลี่ยนทุกคนที่พวกเขาสัมผัสให้กลายเป็นปีศาจซอมบี้

ขณะที่พวกเขากำลังเผชิญหน้ากับความตาย หูป๊าอิและเชอร์รี่ หยางก็ปรากฏตัวขึ้น ระหว่างที่เชอร์รี่ หยางลงไปใต้ดิน หูป๊าอิได้ใช้ความรู้ด้านฮวงจุ้ยของเขาในการกะเกณฑ์โครงสร้างของสุสาน เพื่อนำทางผู้รอดชีวิตมาสู่ที่ปลอดภัย เมื่อได้กลับมาพบกันอีกครั้ง ทั้งสามคนไม่เพียงแต่จะต้องหาทางกลับขึ้นสู่ด้านบนเท่านั้น แต่พวกเขายังจะต้องหยุดยั้งคนจากลัทธิที่ต้องการจะรวมโลกของคนเป็นและคนตายเป็นหนึ่งเดียว หูป๊าอิและหวังไข่เฉวียนจะต้องเผชิญกับอดีตของตัวเองเมื่อติงสือเถียน สาวสวยที่ทั้งคู่รักมาตลอดยี่สิบปีได้ฟื้นจากความตาย

Complete name : [MINI Super-HQ]_Mojin.The.Lost.Legend.2015.1080p.BrRip.DTS.x264.One2loadup.com.mkv
Format : Matroska
Format version : Version 4 / Version 2
File size : 3.97 GiB
Duration : 2 h 4 min
Overall bit rate : 4 558 kb/s
Movie name : [MINI Super-HQ]_Mojin.The.Lost.Legend.2015.1080p.BrRip.DTS.x264.One2loadup.com.
Encoded date : UTC 2010-02-22 21:41:31
Writing application : mkvmerge v5.9.0 (‘On The Loose’) built on Dec 9 2012 15:37:01
Writing library : libebml v1.3.0 + libmatroska v1.4.0

Video
ID : 1
Format : AVC
Format/Info : Advanced Video Codec
Format profile : [email protected]
Format settings : CABAC / 4 Ref Frames
Format settings, CABAC : Yes
Format settings, ReFrames : 4 frames
Codec ID : V_MPEG4/ISO/AVC
Duration : 2 h 4 min
Bit rate : 3 202 kb/s
Width : 1 920 pixels
Height : 1 040 pixels
Display aspect ratio : 1.85:1
Frame rate mode : Constant
Frame rate : 24.000 FPS
Color space : YUV
Chroma subsampling : 4:2:0
Bit depth : 8 bits
Scan type : Progressive
Bits/(Pixel*Frame) : 0.067
Stream size : 2.84 GiB (72%)
Title : [MINI Super-HQ]_Mojin.The.Lost.Legend.2015.1080p.BrRip.DTS.x264.One2loadup.com.
Writing library : x264 core 130 r2273 b3065e6
Encoding settings : cabac=1 / ref=4 / deblock=1:0:0 / analyse=0x3:0x113 / me=umh / subme=11 / psy=1 / psy_rd=1.00:0.00 / mixed_ref=1 / me_range=48 / chroma_me=1 / trellis=2 / 8x8dct=1 / cqm=0 / deadzone=21,11 / fast_pskip=1 / chroma_qp_offset=-2 / threads=9 / lookahead_threads=1 / sliced_threads=0 / nr=0 / decimate=1 / interlaced=0 / bluray_compat=0 / constrained_intra=0 / bframes=4 / b_pyramid=2 / b_adapt=2 / b_bias=0 / direct=1 / weightb=1 / open_gop=0 / weightp=2 / keyint=240 / keyint_min=24 / scenecut=40 / intra_refresh=0 / rc_lookahead=40 / rc=2pass / mbtree=1 / bitrate=3202 / ratetol=1.0 / qcomp=0.60 / qpmin=0 / qpmax=69 / qpstep=4 / cplxblur=20.0 / qblur=0.5 / ip_ratio=1.40 / aq=1:1.00
Language : Chinese
Default : Yes
Forced : No
Color range : Limited
Color primaries : BT.709
Transfer characteristics : BT.709
Matrix coefficients : BT.709

Audio #1
ID : 2
Format : AC-3
Format/Info : Audio Coding 3
Codec ID : A_AC3
Duration : 2 h 4 min
Bit rate mode : Constant
Bit rate : 448 kb/s
Channel(s) : 6 channels
Channel positions : Front: L C R, Side: L R, LFE
Sampling rate : 48.0 kHz
Frame rate : 31.250 FPS (1536 SPF)
Bit depth : 16 bits
Compression mode : Lossy
Stream size : 400 MiB (10%)
Title : Thai DVD Master
Language : Thai
Service kind : Complete Main
Default : Yes
Forced : Yes

Audio #2
ID : 3
Format : DTS
Format/Info : Digital Theater Systems
Codec ID : A_DTS
Duration : 2 h 4 min
Bit rate mode : Constant
Bit rate : 755 kb/s
Channel(s) : 6 channels
Channel positions : Front: L C R, Side: L R, LFE
Sampling rate : 48.0 kHz
Frame rate : 93.750 FPS (512 SPF)
Bit depth : 24 bits
Compression mode : Lossy
Stream size : 673 MiB (17%)
Title : Chinese DTS
Language : Chinese
Default : No
Forced : No

Text #1
ID : 4
Format : VobSub
Codec ID : S_VOBSUB
Codec ID/Info : Picture based subtitle format used on DVDs
Title : Thai 480p From DVD Master
Language : Thai
Default : No
Forced : No

Text #2
ID : 5
Format : VobSub
Codec ID : S_VOBSUB
Codec ID/Info : Picture based subtitle format used on DVDs
Title : Thai 720p
Language : Thai
Default : No
Forced : No

Text #3
ID : 6
Format : VobSub
Codec ID : S_VOBSUB
Codec ID/Info : Picture based subtitle format used on DVDs
Title : Thai 1080p
Language : Thai
Default : No
Forced : No

Text #4
ID : 7
Format : VobSub
Codec ID : S_VOBSUB
Codec ID/Info : Picture based subtitle format used on DVDs
Title : Thai 1080p Yellow
Language : Thai
Default : No
Forced : No

Text #5
ID : 8
Format : VobSub
Codec ID : S_VOBSUB
Codec ID/Info : Picture based subtitle format used on DVDs
Title : Thai 1080p Low
Language : Thai
Default : Yes
Forced : Yes

Text #6
ID : 9
Format : VobSub
Codec ID : S_VOBSUB
Codec ID/Info : Picture based subtitle format used on DVDs
Title : Thai 1080p BIG
Language : Thai
Default : No
Forced : No

Text #7
ID : 10
Format : VobSub
Codec ID : S_VOBSUB
Codec ID/Info : Picture based subtitle format used on DVDs
Title : Thai 1080p Low [BIG]
Language : Thai
Default : No
Forced : No

Text #8
ID : 11
Format : PGS
Codec ID : S_HDMV/PGS
Codec ID/Info : Picture based subtitle format used on BDs/HD-DVDs
Title : Thai PGS
Language : Thai
Default : No
Forced : No

Text #9
ID : 12
Format : PGS
Codec ID : S_HDMV/PGS
Codec ID/Info : Picture based subtitle format used on BDs/HD-DVDs
Title : Thai PGS Yellow
Language : Thai
Default : No
Forced : No

Text #10
ID : 13
Format : PGS
Codec ID : S_HDMV/PGS
Codec ID/Info : Picture based subtitle format used on BDs/HD-DVDs
Title : Thai PGS Out
Language : Thai
Default : No
Forced : No

Text #11
ID : 14
Format : VobSub
Codec ID : S_VOBSUB
Codec ID/Info : Picture based subtitle format used on DVDs
Title : English
Language : English
Default : No
Forced : No

 

DOWNLOAD


PART01 |||| PART02 |||| PART03 |||| PART04

PART01 |||| PART02 |||| PART03 |||| PART04

PART01 |||| PART02 |||| PART03 |||| PART04

PART01 |||| PART02 |||| PART03 |||| PART04

PART01 |||| PART02 |||| PART03 |||| PART04


5 Comments
  1. Boydm Lion
    Boydm Lion says

    โหลดไม่ได้แล้วครับ

    1. Admin
      Admin says

      แก้ไขเรียบร้อยฮ๊ะ

      1. Boydm Lion
        Boydm Lion says

        ขอบคุณครับผม

  2. auan says

    โหลดไม่ได้แล้วครับ

    1. Admin
      Admin says

      แก้ไขเรียบร้อยฮ๊ะ

Leave A Reply

อีเมล์ของคุณจะไม่แสดงให้เห็น Your email address will not be published.

%d bloggers like this: