[MINI Super-HQ] Mission: Impossible Rogue Nation (2015) ปฏิบัติการรัฐอำพราง ภาค 5 [1080p] [พากย์ไทย 5.1 + เสียงอังกฤษ DTS] [บรรยายไทย + อังกฤษ] [เสียงไทย + ซับไทย] [PANDAFILE]

5

Mission: Impossible Rogue Nation (2015) ปฏิบัติการรัฐอำพราง

โหลดหนัง Mission: Impossible Rogue Nation (2015) มิชชั่น:อิมพอสซิเบิ้ล 5 ปฏิบัติการรัฐอำพราง ภาค 5

Mission: Impossible - Rogue Nation | July 31, 2015 (United States) Summary: Ethan and his team take on their most impossible mission yet when they have to eradicate an international rogue organization as highly skilled as they are and committed to destroying the IMF... Read all
Countries: United States, ChinaLanguages: English, Swedish, German, Russian

เรื่องย่อ Mission: Impossible Rogue Nation (2015) มิชชั่น:อิมพอสซิเบิ้ล 5 ปฏิบัติการรัฐอำพราง ภาค 5

ทอม ครูซ กลับมารับบท อีธาน ฮันท์ อีกครั้ง ใน Mission: Impossible: Rogue Nation ซึ่งคราวนี้ อีธาน พร้อมด้วยทีมของเขาจะกลับมาในปฏิบัติการครั้งใหม่เพื่อจัดการกับ “เดอะ ซินดิเคต” องค์กรลับระดับนานาชาติที่เพียบพร้อมไปด้วยเหล่ามือสังหารที่ถูกฝึกมาอย่างไร้ที่ติงานนี้อีธานและพวกเตรียมระดมทุกกำลังเพื่อล้างบางองค์กรนี้ให้จงได้ ไม่ว่าเขาจะต้องแลกด้วยอะไรก็ตาม!

Mission Impossible: Rogue Nation รวมเอา ทอม ครูซ, เจเรมี เรนเนอร์ และ ไซมอน เพ็กก์ กลับมาปะทะฝีมือกันอีกครั้ง และได้ อเล็กซ์ บอลด์วิน และ รีเบคก้า เฟอร์กูสัน มาเสริมทัพนักแสดง พร้อมด้วยฉากแอคชั่นจัดหนักอย่างซิ่งมอเตอร์ไซค์ สู้มือเปล่า และฉากเกาะเครื่องบินเสี่ยงตายก็มีแน่นอน!

Complete name : [MINI Super-HQ]_Mission.Impossible.Rogue.Nation.2015.1080p.BrRip.DTS.x264.One2loadup.com.mkv
Format : Matroska
Format version : Version 4 / Version 2
File size : 4.37 GiB
Duration : 2 h 11 min
Overall bit rate : 4 754 kb/s
Movie name : [MINI Super-HQ]_Mission.Impossible.Rogue.Nation.2015.1080p.BrRip.DTS.x264.One2loadup.com
Encoded date : UTC 2010-02-22 21:41:31
Writing application : mkvmerge v5.9.0 (‘On The Loose’) built on Dec 9 2012 15:37:01
Writing library : libebml v1.3.0 + libmatroska v1.4.0

Video
ID : 1
Format : AVC
Format/Info : Advanced Video Codec
Format profile : [email protected]
Format settings, CABAC : Yes
Format settings, RefFrames : 4 frames
Codec ID : V_MPEG4/ISO/AVC
Duration : 2 h 11 min
Bit rate : 3 171 kb/s
Width : 1 920 pixels
Height : 804 pixels
Display aspect ratio : 2.40:1
Frame rate mode : Constant
Frame rate : 23.976 (23976/1000) FPS
Color space : YUV
Chroma subsampling : 4:2:0
Bit depth : 8 bits
Scan type : Progressive
Bits/(Pixel*Frame) : 0.086
Stream size : 3.00 GiB (69%)
Title : [MINI Super-HQ]_Mission.Impossible.Rogue.Nation.2015.1080p.BrRip.DTS.x264.One2loadup.com
Writing library : x264 core 130 r2273 b3065e6
Encoding settings : cabac=1 / ref=4 / deblock=1:0:0 / analyse=0x3:0x113 / me=umh / subme=11 / psy=1 / psy_rd=1.00:0.00 / mixed_ref=1 / me_range=64 / chroma_me=1 / trellis=2 / 8x8dct=1 / cqm=0 / deadzone=21,11 / fast_pskip=1 / chroma_qp_offset=-2 / threads=10 / lookahead_threads=1 / sliced_threads=0 / nr=0 / decimate=1 / interlaced=0 / bluray_compat=0 / constrained_intra=0 / bframes=4 / b_pyramid=2 / b_adapt=2 / b_bias=0 / direct=1 / weightb=1 / open_gop=0 / weightp=2 / keyint=240 / keyint_min=24 / scenecut=40 / intra_refresh=0 / rc_lookahead=40 / rc=2pass / mbtree=1 / bitrate=3171 / ratetol=1.0 / qcomp=0.60 / qpmin=0 / qpmax=69 / qpstep=4 / cplxblur=20.0 / qblur=0.5 / ip_ratio=1.40 / aq=1:1.00
Language : English
Default : Yes
Forced : No
Color range : Limited
Color primaries : BT.709
Transfer characteristics : BT.709
Matrix coefficients : BT.709

Audio #1
ID : 2
Format : AC-3
Format/Info : Audio Coding 3
Format settings, Endianness : Big
Codec ID : A_AC3
Duration : 2 h 11 min
Bit rate mode : Constant
Bit rate : 640 kb/s
Channel(s) : 6 channels
Channel positions : Front: L C R, Side: L R, LFE
Sampling rate : 48.0 kHz
Frame rate : 31.250 FPS (1536 SPF)
Bit depth : 16 bits
Compression mode : Lossy
Stream size : 602 MiB (13%)
Title : Thai BluRay Master
Language : Thai
Service kind : Complete Main
Default : Yes
Forced : Yes

Audio #2
ID : 3
Format : DTS
Format/Info : Digital Theater Systems
Mode : 16
Format settings, Endianness : Big
Codec ID : A_DTS
Duration : 2 h 11 min
Bit rate mode : Constant
Bit rate : 755 kb/s
Channel(s) : 6 channels
Channel positions : Front: L C R, Side: L R, LFE
Sampling rate : 48.0 kHz
Frame rate : 93.750 FPS (512 SPF)
Bit depth : 24 bits
Compression mode : Lossy
Stream size : 710 MiB (16%)
Title : English DTS
Language : English
Default : No
Forced : No

Text #1
ID : 4
Format : VobSub
Codec ID : S_VOBSUB
Codec ID/Info : Picture based subtitle format used on DVDs
Title : Thai 480p
Language : Thai
Default : No
Forced : No

Text #2
ID : 5
Format : VobSub
Codec ID : S_VOBSUB
Codec ID/Info : Picture based subtitle format used on DVDs
Title : Thai 720p
Language : Thai
Default : No
Forced : No

Text #3
ID : 6
Format : VobSub
Codec ID : S_VOBSUB
Codec ID/Info : Picture based subtitle format used on DVDs
Title : Thai 1080p BluRay Master
Language : Thai
Default : Yes
Forced : Yes

Text #4
ID : 7
Format : VobSub
Codec ID : S_VOBSUB
Codec ID/Info : Picture based subtitle format used on DVDs
Title : Thai 1080p Angsana
Language : Thai
Default : No
Forced : No

Text #5
ID : 8
Format : VobSub
Codec ID : S_VOBSUB
Codec ID/Info : Picture based subtitle format used on DVDs
Title : Thai 1080p Yellow
Language : Thai
Default : No
Forced : No

Text #6
ID : 9
Format : VobSub
Codec ID : S_VOBSUB
Codec ID/Info : Picture based subtitle format used on DVDs
Title : Thai 1080p Out
Language : Thai
Default : No
Forced : No

Text #7
ID : 10
Format : VobSub
Codec ID : S_VOBSUB
Codec ID/Info : Picture based subtitle format used on DVDs
Title : Thai 1080p BIG
Language : Thai
Default : No
Forced : No

Text #8
ID : 11
Format : VobSub
Codec ID : S_VOBSUB
Codec ID/Info : Picture based subtitle format used on DVDs
Title : Thai 1080p Out [BIG]
Language : Thai
Default : No
Forced : No

Text #9
ID : 12
Format : PGS
Codec ID : S_HDMV/PGS
Codec ID/Info : Picture based subtitle format used on BDs/HD-DVDs
Title : Thai PGS BluRay Master
Language : Thai
Default : No
Forced : No

Text #10
ID : 13
Format : PGS
Codec ID : S_HDMV/PGS
Codec ID/Info : Picture based subtitle format used on BDs/HD-DVDs
Title : Thai PGS Angsana
Language : Thai
Default : No
Forced : No

Text #11
ID : 14
Format : PGS
Codec ID : S_HDMV/PGS
Codec ID/Info : Picture based subtitle format used on BDs/HD-DVDs
Title : Thai PGS Yellow
Language : Thai
Default : No
Forced : No

Text #12
ID : 15
Format : PGS
Codec ID : S_HDMV/PGS
Codec ID/Info : Picture based subtitle format used on BDs/HD-DVDs
Title : Thai PGS Out
Language : Thai
Default : No
Forced : No

Text #13
ID : 16
Format : VobSub
Codec ID : S_VOBSUB
Codec ID/Info : Picture based subtitle format used on DVDs
Title : English
Language : English
Default : No
Forced : No

Text #14
ID : 17
Format : VobSub
Codec ID : S_VOBSUB
Codec ID/Info : Picture based subtitle format used on DVDs
Title : Commentary
Language : English
Default : No
Forced : No

Menu
00:00:00.000 : en:Chapter 1
00:09:53.175 : en:Chapter 2
00:20:44.993 : en:Chapter 3
00:25:32.155 : en:Chapter 4
00:32:00.752 : en:Chapter 5
00:40:03.526 : en:Chapter 6
00:49:35.639 : en:Chapter 7
01:01:01.240 : en:Chapter 8
01:09:51.020 : en:Chapter 9
01:20:20.941 : en:Chapter 10
01:29:29.405 : en:Chapter 11
01:38:32.906 : en:Chapter 12
01:48:19.492 : en:Chapter 13
01:57:14.026 : en:Chapter 14
02:03:02.792 : en:Chapter 15

DOWNLOAD


PART01 |||| PART02 |||| PART03 |||| PART04 |||| PART05

PART01 |||| PART02 |||| PART03 |||| PART04 |||| PART05

PART01 |||| PART02 |||| PART03 |||| PART04 |||| PART05

PART01 |||| PART02 |||| PART03 |||| PART04 |||| PART05

PART01 |||| PART02 |||| PART03 |||| PART04 |||| PART05


5 Comments
  1. Panitan Muenduang
    Panitan Muenduang says

    โหลดไม่ได้อ่ะคับ
    ช่วยอัพไฟล์ใหม่ให้หน่อยได้ไหมคับ

    1. Admin
      Admin says

      แก้ไขเรียบร้อยฮ๊ะ

  2. Ton Rakmanee
    Ton Rakmanee says

    โหลดไฟล์ที่ 5 ไม่ได้รบกวนด้วยครับ

    1. Ton Rakmanee
      Ton Rakmanee says

      โหลดได้แล้วครับขอบคุณครับ

    2. Admin
      Admin says

      แก้ไขเรียบร้อยฮ๊ะ

Leave A Reply

อีเมล์ของคุณจะไม่แสดงให้เห็น Your email address will not be published.

%d bloggers like this: