[MINI Super-HQ] Midnight University (2016) มหาลัยเที่ยงคืน [1080p] [พากย์ไทย 5.1] [บรรยายไทย + อังกฤษ] [เสียงไทย + ซับไทย] [DOSYAUPLOAD]

0

โหลดหนัง Midnight University (2016) มหาลัยเที่ยงคืน

Mahalai Tiang Kuen (2016) 113min | Comedy, Horror | July 28, 2016 (Thailand) Summary: Every university has some mysterious tall tales of the past, where students die before graduating. Someone wants to create a class to help the spirits graduate college. What kind of terror and romp will they have to go through?
Countries: Thailand, CambodiaLanguages: Thai

เรื่องย่อ Midnight University (2016) มหาลัยเที่ยงคืน

การสอบตกทำให้นักศึกษาหกคนต้องเข้าเรียนรอบดึกในมหาวิทยาลัยหลอนที่พวกเขายังต้องเรียนต่อไปแม้จะมีผีเพ่นพ่านเต็มห้องก็ตาม

Complete name : [MINI Super-HQ]_Midnight.University.2016.1080p.NF.WEB-DL.EAC3.x264.One2loadup.com.mkv
Format : Matroska
Format version : Version 4
File size : 4.89 GiB
Duration : 1 h 53 min
Overall bit rate : 6 172 kb/s
Movie name : [MINI Super-HQ]_Midnight.University.2016.1080p.NF.WEB-DL.EAC3.x264.One2loadup.com
Encoded date : UTC 2020-08-06 09:03:31
Writing application : mkvmerge v49.0.0 (‘Sick Of Losing Soulmates’) 64-bit
Writing library : libebml v1.4.0 + libmatroska v1.6.1

Video
ID : 1
Format : AVC
Format/Info : Advanced Video Codec
Format profile : [email protected]
Format settings : CABAC / 3 Ref Frames
Format settings, CABAC : Yes
Format settings, Reference : 3 frames
Codec ID : V_MPEG4/ISO/AVC
Duration : 1 h 53 min
Bit rate : 5 501 kb/s
Width : 1 920 pixels
Height : 804 pixels
Display aspect ratio : 2.40:1
Frame rate mode : Constant
Frame rate : 24.000 FPS
Color space : YUV
Chroma subsampling : 4:2:0
Bit depth : 8 bits
Scan type : Progressive
Bits/(Pixel*Frame) : 0.148
Stream size : 4.35 GiB (89%)
Title : [MINI Super-HQ]_Midnight.University.2016.1080p.NF.WEB-DL.EAC3.x264.One2loadup.com
Language : Thai
Default : Yes
Forced : No

Audio
ID : 2
Format : E-AC-3
Format/Info : Enhanced AC-3
Commercial name : Dolby Digital Plus
Codec ID : A_EAC3
Duration : 1 h 53 min
Bit rate mode : Constant
Bit rate : 640 kb/s
Channel(s) : 6 channels
Channel layout : L R C LFE Ls Rs
Sampling rate : 48.0 kHz
Frame rate : 31.250 FPS (1536 SPF)
Compression mode : Lossy
Stream size : 519 MiB (10%)
Title : AC-3 Thai
Language : Thai
Service kind : Complete Main
Default : Yes
Forced : No

Text #1
ID : 3
Format : VobSub
Muxing mode : zlib
Codec ID : S_VOBSUB
Codec ID/Info : Picture based subtitle format used on DVDs
Duration : 1 h 52 min
Bit rate : 6 217 b/s
Count of elements : 981
Stream size : 5.00 MiB (0%)
Title : Sub English 1080p
Language : English
Default : No
Forced : No

Text #2
ID : 4
Format : UTF-8
Codec ID : S_TEXT/UTF8
Codec ID/Info : UTF-8 Plain Text
Duration : 1 h 52 min
Bit rate : 31 b/s
Count of elements : 981
Stream size : 26.1 KiB (0%)
Title : Sub English SRT
Language : English
Default : No
Forced : No

Text #3
ID : 5
Format : PGS
Muxing mode : zlib
Codec ID : S_HDMV/PGS
Codec ID/Info : Picture based subtitle format used on BDs/HD-DVDs
Duration : 1 h 52 min
Bit rate : 21.0 kb/s
Count of elements : 1962
Stream size : 16.9 MiB (0%)
Title : Sub English PGS
Language : English
Default : Yes
Forced : No

Text #4
ID : 6
Format : VobSub
Muxing mode : zlib
Codec ID : S_VOBSUB
Codec ID/Info : Picture based subtitle format used on DVDs
Duration : 1 h 48 min
Bit rate : 7 047 b/s
Count of elements : 1027
Stream size : 5.47 MiB (0%)
Title : Sub Thai 1080p
Language : Thai
Default : No
Forced : No

Text #5
ID : 7
Format : UTF-8
Codec ID : S_TEXT/UTF8
Codec ID/Info : UTF-8 Plain Text
Duration : 1 h 48 min
Bit rate : 80 b/s
Count of elements : 1027
Stream size : 64.3 KiB (0%)
Title : Sub Thai SRT
Language : Thai
Default : No
Forced : No

Text #6
ID : 8
Format : PGS
Muxing mode : zlib
Codec ID : S_HDMV/PGS
Codec ID/Info : Picture based subtitle format used on BDs/HD-DVDs
Duration : 1 h 48 min
Bit rate : 23.4 kb/s
Count of elements : 2054
Stream size : 18.1 MiB (0%)
Title : Sub Thai PGS
Language : Thai
Default : No
Forced : No

DOWNLOAD


PART01 |||| PART02 |||| PART03 |||| PART04 |||| PART05

PART01 |||| PART02 |||| PART03 |||| PART04 |||| PART05

PART01 |||| PART02 |||| PART03 |||| PART04 |||| PART05

PART01 |||| PART02 |||| PART03 |||| PART04 |||| PART05

PART01 |||| PART02 |||| PART03 |||| PART04 |||| PART05


Leave A Reply

อีเมล์ของคุณจะไม่แสดงให้เห็น Your email address will not be published.

%d bloggers like this: