[MINI Super-HQ] Midnight (2021) คืนฆ่าไร้เสียง [1080p] [พากย์ไทย 5.1 + เสียงเกาหลี 5.1] [บรรยายไทย + อังกฤษ] [เสียงไทย + ซับไทย] [DOSYAUPLOAD]

0

โหลดหนัง Midnight (2021) คืนฆ่าไร้เสียง

Midnight | April 5, 2022 (United States) Summary: A serial killer ruthlessly hunts down a deaf woman through the streets of South Korea after she witnesses his brutal crime.
Countries: South KoreaLanguages: Korean

เรื่องย่อ Midnight (2021) คืนฆ่าไร้เสียง

เธอคือพยานที่พูดไม่ได้! เขาคือฆาตกรที่ล่าไม่หยุด! พบกับภาพยนตร์เกาหลีระทึกขวัญเรื่องล่าสุด MIDNIGHT คืนฆ่าไร้เสียงเรื่องราวของ คยองมี (จินกีจู) คือหญิงสาวที่มีปัญหาการได้ยิน เธอจึงทำงานเป็นล่ามภาษามือที่บริษัทคอลเซ็นเตอร์แห่งหนึ่ง แต่แล้วชีวิตปกติสุขของเธอต้องเปลี่ยนไป เมื่อกลางดึกคืนหนึ่ง เธอดันไปเห็นเหตุการณ์ฆาตกรรมของฆาตกรโรคจิตอย่าง โดซิก (วีฮาจุน) และนั่นทำให้เธอตกเป็นเป้าหมายรายต่อไป

Complete name : [MINI Super-HQ]_Midnight.2021.1080p.WEB-DL.EAC3.x264.One2loadup.com.mkv
Format : Matroska
Format version : Version 4
File size : 4.25 GiB
Duration : 1 h 43 min
Overall bit rate : 5 899 kb/s
Movie name : [MINI Super-HQ]_Midnight.2021.1080p.WEB-DL.EAC3.x264.One2loadup.com
Encoded date : UTC 2022-10-14 12:58:12
Writing application : mkvmerge v55.0.0 (‘Waiting For Space’) 64-bit
Writing library : libebml v1.4.2 + libmatroska v1.6.4

Video
ID : 1
Format : AVC
Format/Info : Advanced Video Codec
Format profile : [email protected]
Format settings : CABAC / 3 Ref Frames
Format settings, CABAC : Yes
Format settings, Reference : 3 frames
Codec ID : V_MPEG4/ISO/AVC
Duration : 1 h 43 min
Bit rate : 4 581 kb/s
Width : 1 920 pixels
Height : 804 pixels
Display aspect ratio : 2.40:1
Frame rate mode : Constant
Frame rate : 24.000 FPS
Color space : YUV
Chroma subsampling : 4:2:0
Bit depth : 8 bits
Scan type : Progressive
Bits/(Pixel*Frame) : 0.124
Stream size : 3.30 GiB (78%)
Title : [MINI Super-HQ]_Midnight.2021.1080p.WEB-DL.EAC3.x264.One2loadup.com
Language : Korean
Default : Yes
Forced : No

Audio #1
ID : 2
Format : E-AC-3
Format/Info : Enhanced AC-3
Commercial name : Dolby Digital Plus
Codec ID : A_EAC3
Duration : 1 h 43 min
Bit rate mode : Constant
Bit rate : 640 kb/s
Channel(s) : 6 channels
Channel layout : L R C LFE Ls Rs
Sampling rate : 48.0 kHz
Frame rate : 31.250 FPS (1536 SPF)
Compression mode : Lossy
Stream size : 472 MiB (11%)
Title : E-AC3 Korean
Language : Korean
Service kind : Complete Main
Default : Yes
Forced : No

Audio #2
ID : 3
Format : E-AC-3
Format/Info : Enhanced AC-3
Commercial name : Dolby Digital Plus
Codec ID : A_EAC3
Duration : 1 h 43 min
Bit rate mode : Constant
Bit rate : 640 kb/s
Channel(s) : 6 channels
Channel layout : L R C LFE Ls Rs
Sampling rate : 48.0 kHz
Frame rate : 31.250 FPS (1536 SPF)
Compression mode : Lossy
Stream size : 472 MiB (11%)
Title : E-AC3 Thai
Language : Thai
Service kind : Complete Main
Default : No
Forced : No

Text #1
ID : 4
Format : VobSub
Muxing mode : zlib
Codec ID : S_VOBSUB
Codec ID/Info : Picture based subtitle format used on DVDs
Duration : 1 h 37 min
Bit rate : 6 871 b/s
Count of elements : 873
Stream size : 4.78 MiB (0%)
Title : Sub Thai 1080p
Language : Thai
Default : No
Forced : No

Text #2
ID : 5
Format : UTF-8
Codec ID : S_TEXT/UTF8
Codec ID/Info : UTF-8 Plain Text
Duration : 1 h 37 min
Bit rate : 70 b/s
Count of elements : 873
Stream size : 50.4 KiB (0%)
Title : Sub Thai SRT
Language : Thai
Default : No
Forced : No

Text #3
ID : 6
Format : PGS
Muxing mode : zlib
Codec ID : S_HDMV/PGS
Codec ID/Info : Picture based subtitle format used on BDs/HD-DVDs
Duration : 1 h 37 min
Bit rate : 21.6 kb/s
Count of elements : 1746
Stream size : 15.0 MiB (0%)
Title : Sub Thai PGS
Language : Thai
Default : No
Forced : No

Text #4
ID : 7
Format : PGS
Muxing mode : zlib
Codec ID : S_HDMV/PGS
Codec ID/Info : Picture based subtitle format used on BDs/HD-DVDs
Duration : 1 h 37 min
Bit rate : 34.7 kb/s
Count of elements : 1746
Stream size : 24.1 MiB (1%)
Title : Sub Thai PGS NETFLIX
Language : Thai
Default : Yes
Forced : No

Text #5
ID : 8
Format : UTF-8
Codec ID : S_TEXT/UTF8
Codec ID/Info : UTF-8 Plain Text
Duration : 1 h 31 min
Bit rate : 8 b/s
Count of elements : 90
Stream size : 5.38 KiB (0%)
Title : Sub Thai Forced
Language : Thai
Default : No
Forced : Yes

Text #6
ID : 9
Format : UTF-8
Codec ID : S_TEXT/UTF8
Codec ID/Info : UTF-8 Plain Text
Duration : 1 h 37 min
Bit rate : 28 b/s
Count of elements : 869
Stream size : 20.2 KiB (0%)
Title : Sub English SRT
Language : English
Default : No
Forced : No

DOWNLOAD


PART01 |||| PART02 |||| PART03 |||| PART04 |||| PART05

PART01 |||| PART02 |||| PART03 |||| PART04 |||| PART05

PART01 |||| PART02 |||| PART03 |||| PART04 |||| PART05

PART01 |||| PART02 |||| PART03 |||| PART04 |||| PART05

PART01 |||| PART02 |||| PART03 |||| PART04 |||| PART05


Leave A Reply

อีเมล์ของคุณจะไม่แสดงให้เห็น Your email address will not be published.

%d bloggers like this: