[MINI Super-HQ] Men In Black (1997) เอ็มไอบี หน่วยจารชนพิทักษ์จักรวาล ภาค 1 [1080p] [พากษ์ไทย 5.1 + เสียงอังกฤษ DTS] [บรรยายไทย + อังกฤษ] [เสียงไทย + ซับไทย] [OPENLOAD]

3

โหลดหนัง Men In Black (1997) เอ็มไอบี หน่วยจารชนพิทักษ์จักรวาล ภาค 1

Men in Black (1997) 1h 38min | Action, Adventure, Comedy | 2 July 1997 (Canada) Summary: A police officer joins a secret organization that polices and monitors extraterrestrial interactions on Earth.
Countries: USALanguages: English, Spanish

เรื่องย่อ Men In Black (1997) เอ็มไอบี หน่วยจารชนพิทักษ์จักรวาล ภาค 1

ทอมมี่ ลี โจนส์และวิล สมิธพบกันในภาพยนตร์แอ็คชั่นไซไฟฮิตถล่มทลายกับบทบุรุษในชุดดำเจ้าหน้าที่จัดระเบียบประชากรเอเลี่ยนที่มาอาศัยอยู่ในโลกของเรา! ด้วยความสามารถของเหล่าเอเลี่ยนที่แอบมาอยู่บนโลกปะปนกับมนุษย์ได้อย่างแนบเนียน เป็นหน้าที่ขององค์กรเอ็มไอบี ที่จะต้องควบคุมและดูแลความเรียบร้อยของผู้มาเยือนจากต่างดาวทั้งหลายให้ เป็นความลับอยู่ต่อไป แต่เมื่อการตายของเอเลี่ยนตนหนึ่งเกิดขึ้นอย่างน่าสงสัยเจ้าหน้าที่เค ย์ (โจนส์) ผู้หน่ายโลกและเจ้าหน้าที่เจย์ (สมิธ) คู่หูใหม่ไฟแรงต้องก้าวเข้ามาสืบสวนปริศนาโดยมีดร. ลอร่า วีเวอร์ (ลินดา) แพทย์หญิงสุดเซ็กซี่คอยให้ความร่วมมือพวกเขาพบว่ามันเป็นฝีมือของเอเลี่ยนร้าย (วินเซนต์ ดีโอโน ฟริโน) ที่ลักลอบเข้ามาด้วยจุดประสงค์อันตรายซึ่งเคย์กับเจย์จะต้องหาทางกำจัดมันก่อนที่โลกจะถูกทำลาย!

Complete name : [MINI Super-HQ]_1.Men.in.Black.1997.1080p.BrRip.DTS.x264.One2loadup.com.mkv
Format : Matroska
Format version : Version 4
File size : 3.69 GiB
Duration : 1 h 37 min
Overall bit rate : 5 397 kb/s
Movie name : [MINI Super-HQ]_1.Men.in.Black.1997.1080p.BrRip.DTS.x264.One2loadup.com
Encoded date : UTC 2015-07-05 23:54:13
Writing application : mkvmerge v7.8.0 (‘River Man’) 32bit built on Mar 27 2015 16:18:02
Writing library : libebml v1.3.1 + libmatroska v1.4.2
Cover : Yes
Attachments : cover_land.png / cover.png

Video
ID : 1
Format : AVC
Format/Info : Advanced Video Codec
Format profile : [email protected]
Format settings : CABAC / 5 Ref Frames
Format settings, CABAC : Yes
Format settings, ReFrames : 5 frames
Codec ID : V_MPEG4/ISO/AVC
Duration : 1 h 37 min
Bit rate : 4 161 kb/s
Width : 1 920 pixels
Height : 1 040 pixels
Display aspect ratio : 1.85:1
Frame rate mode : Constant
Frame rate : 23.976 (24000/1001) FPS
Color space : YUV
Chroma subsampling : 4:2:0
Bit depth : 8 bits
Scan type : Progressive
Bits/(Pixel*Frame) : 0.087
Stream size : 2.80 GiB (76%)
Title : [MINI Super-HQ]_1.Men.in.Black.1997.1080p.BrRip.DTS.x264.One2loadup.com
Writing library : x264 core 146 r2538 121396c
Encoding settings : cabac=1 / ref=5 / deblock=1:-3:-3 / analyse=0x3:0x113 / me=umh / subme=11 / psy=1 / psy_rd=1.00:0.20 / mixed_ref=1 / me_range=64 / chroma_me=1 / trellis=2 / 8x8dct=1 / cqm=0 / deadzone=21,11 / fast_pskip=0 / chroma_qp_offset=-3 / threads=24 / lookahead_threads=2 / sliced_threads=0 / nr=0 / decimate=1 / interlaced=0 / bluray_compat=0 / constrained_intra=0 / bframes=5 / b_pyramid=2 / b_adapt=2 / b_bias=0 / direct=3 / weightb=1 / open_gop=0 / weightp=2 / keyint=250 / keyint_min=23 / scenecut=40 / intra_refresh=0 / rc_lookahead=120 / rc=2pass / mbtree=1 / bitrate=4161 / ratetol=1.0 / qcomp=0.60 / qpmin=0 / qpmax=69 / qpstep=4 / cplxblur=20.0 / qblur=0.5 / vbv_maxrate=99999 / vbv_bufsize=99999 / nal_hrd=none / filler=0 / ip_ratio=1.40 / aq=1:1.00
Language : English
Default : Yes
Forced : No

Audio #1
ID : 2
Format : AC-3
Format/Info : Audio Coding 3
Commercial name : Dolby Digital
Codec ID : A_AC3
Duration : 1 h 37 min
Bit rate mode : Constant
Bit rate : 448 kb/s
Channel(s) : 6 channels
Channel layout : L R C LFE Ls Rs
Sampling rate : 48.0 kHz
Frame rate : 31.250 FPS (1536 SPF)
Bit depth : 16 bits
Compression mode : Lossy
Stream size : 314 MiB (8%)
Title : AC3 BD MASTER
Language : Thai
Service kind : Complete Main
Default : Yes
Forced : Yes

Audio #2
ID : 3
Format : DTS
Format/Info : Digital Theater Systems
Codec ID : A_DTS
Duration : 1 h 37 min
Bit rate mode : Constant
Bit rate : 755 kb/s
Channel(s) : 6 channels
Channel layout : C L R Ls Rs LFE
Sampling rate : 48.0 kHz
Frame rate : 93.750 FPS (512 SPF)
Bit depth : 24 bits
Compression mode : Lossy
Stream size : 529 MiB (14%)
Title : DTS
Language : English
Default : No
Forced : No

Text #1
ID : 4
Format : VobSub
Codec ID : S_VOBSUB
Codec ID/Info : Picture based subtitle format used on DVDs
Title : 1080P
Language : Thai
Default : No
Forced : No

Text #2
ID : 5
Format : VobSub
Codec ID : S_VOBSUB
Codec ID/Info : Picture based subtitle format used on DVDs
Title : 1080P YELLOW
Language : Thai
Default : No
Forced : No

Text #3
ID : 6
Format : VobSub
Codec ID : S_VOBSUB
Codec ID/Info : Picture based subtitle format used on DVDs
Title : 1080P Original BD
Language : Thai
Default : No
Forced : No

Text #4
ID : 7
Format : VobSub
Codec ID : S_VOBSUB
Codec ID/Info : Picture based subtitle format used on DVDs
Title : 480P
Language : Thai
Default : No
Forced : No

Text #5
ID : 8
Format : VobSub
Codec ID : S_VOBSUB
Codec ID/Info : Picture based subtitle format used on DVDs
Title : 1080P Original BD
Language : English
Default : No
Forced : No

Text #6
ID : 9
Format : UTF-8
Codec ID : S_TEXT/UTF8
Codec ID/Info : UTF-8 Plain Text
Title : SRT
Language : English
Default : No
Forced : No

Text #7
ID : 10
Format : PGS
Codec ID : S_HDMV/PGS
Codec ID/Info : Picture based subtitle format used on BDs/HD-DVDs
Title : PGS
Language : Thai
Default : No
Forced : No

DOWNLOAD


PART01 |||| PART02 |||| PART03 |||| PART04

PART01 |||| PART02 |||| PART03 |||| PART04

PART01 |||| PART02 |||| PART03 |||| PART04

PART01 |||| PART02 |||| PART03 |||| PART04


3 Comments
  1. ALCOHOI COMBIZ
    ALCOHOI COMBIZ says

    เวลากดตรวจบอทมันบอกว่า ผิดพลาดครับเข้าไปโหลดไฟล์ไม่ได้ ขอแก้ไขด้วยนะครับ ทุกภาค

    1. Admin
      Admin says

      เป็นที่ google ยืนยันภาพ เองนะฮ๊ะ แนะนำให้กดยืนยันภาพให้ถูกต้อง ก่อน หากไม่ได้แนะนำให้รีเน็ต 1 ครั้งแล้วลองใหม่ฮ๊ะ

  2. ALCOHOI COMBIZ
    ALCOHOI COMBIZ says

    ขอบคุณครับ

Leave A Reply

Your email address will not be published.