[MINI Super-HQ] Master Z: The Ip Man Legacy (2018) ยิปมัน: ตำนานมาสเตอร์ Z [1080p] [พากย์ไทย 5.1 + เสียงจีน DTS] [บรรยายไทย + อังกฤษ] [เสียงไทย + ซับไทย] [PANDAFILE]

0

โหลดหนัง Master Z: The Ip Man Legacy (2018) ยิปมัน: ตำนานมาสเตอร์ Z

Master Z: The Ip Man Legacy | December 20, 2018 (Hong Kong) Summary: While keeping a low profile after his defeat by Ip Man, Cheung Tin Chi gets into trouble after getting in a fight with a powerful foreigner.
Countries: Hong Kong, ChinaLanguages: Cantonese, Mandarin, English

เรื่องย่อ Master Z: The Ip Man Legacy (2018) ยิปมัน: ตำนานมาสเตอร์ Z

หลังจากที่จงเทียนฉีพ่ายการต่อสู้ต่อยิปมัน เขาเลือกที่จะหันหลังให้กับมวยหย่งชุนและใช้ชีวิตอย่างเรียบง่ายแต่ไม่นานเขาก็ไปมีเรื่องกับแก๊งค์อันธพาลหลังจากที่พยายามช่วยเหลือหญิงสาวที่ถูกข่มเหงแก๊งค์อันธพาลเผาบ้านของเขาอย่างย่อยยับจงเทียนฉีหลบหนีออกมาไปหลบพักอาศัยอยู่ที่บาร์เหล้าข้างถนนที่นั่นเขาได้พบกับผู้คนที่ช่วยเหลือและมีจิตใจดี ไม่นานจงเทียนฉีได้เรียนรู้ว่าแก๊งค์อันธพาลที่เผาบ้านของเขาเป็นแก๊งค์ที่ลักลอบขายยาเสพติดและทำร้ายผู้คนอย่างโหดร้าย แม้แต่ตำรวจก็ไม่สามารถจัดการกับพวกนี้ได้จงเทียนฉีจึงต้องอาศัยหมัดมวยหย่งชุนของเขาอีกครั้งเพื่อผดุงความยุติธรรม!!!

Complete name : [MINI Super-HQ]_Master.Z.Ip.Man.Legacy.2018.1080p.BrRip.DTS.x264.One2loadup.com.mkv
Format : Matroska
Format version : Version 4
File size : 3.96 GiB
Duration : 1 h 47 min
Overall bit rate : 5 268 kb/s
Movie name : [MINI Super-HQ]_Master.Z.Ip.Man.Legacy.2018.1080p.BrRip.DTS.x264.One2loadup.com
Encoded date : UTC 2010-02-22 21:41:31
Writing application : mkvmerge v5.9.0 (‘On The Loose’) built on Dec 9 2012 15:37:01
Writing library : libebml v1.3.0 + libmatroska v1.4.0

Video
ID : 1
Format : AVC
Format/Info : Advanced Video Codec
Format profile : [email protected]
Format settings : CABAC / 4 Ref Frames
Format settings, CABAC : Yes
Format settings, ReFrames : 4 frames
Codec ID : V_MPEG4/ISO/AVC
Duration : 1 h 47 min
Bit rate : 3 909 kb/s
Width : 1 920 pixels
Height : 856 pixels
Display aspect ratio : 2.25:1
Original display aspect rat : 2.25:1
Frame rate mode : Constant
Frame rate : 24.000 FPS
Color space : YUV
Chroma subsampling : 4:2:0
Bit depth : 8 bits
Scan type : Progressive
Bits/(Pixel*Frame) : 0.099
Stream size : 2.97 GiB (75%)
Title : [MINI Super-HQ]_Master.Z.Ip.Man.Legacy.2018.1080p.BrRip.DTS.x264.One2loadup.com
Writing library : x264 core 130 r2273 b3065e6
Encoding settings : cabac=1 / ref=3 / deblock=1:0:0 / analyse=0x3:0x113 / me=umh / subme=11 / psy=1 / psy_rd=1.00:0.00 / mixed_ref=1 / me_range=48 / chroma_me=1 / trellis=2 / 8x8dct=1 / cqm=0 / deadzone=21,11 / fast_pskip=1 / chroma_qp_offset=-2 / threads=24 / lookahead_threads=2 / sliced_threads=0 / nr=0 / decimate=1 / interlaced=0 / bluray_compat=0 / constrained_intra=0 / bframes=3 / b_pyramid=2 / b_adapt=1 / b_bias=0 / direct=1 / weightb=1 / open_gop=0 / weightp=2 / keyint=240 / keyint_min=24 / scenecut=40 / intra_refresh=0 / rc_lookahead=40 / rc=2pass / mbtree=1 / bitrate=3909 / ratetol=1.0 / qcomp=0.60 / qpmin=0 / qpmax=69 / qpstep=4 / cplxblur=20.0 / qblur=0.5 / ip_ratio=1.40 / aq=1:1.00
Language : Chinese
Default : Yes
Forced : No
Color range : Limited
Color primaries : BT.709
Transfer characteristics : BT.709
Matrix coefficients : BT.709

Audio #1
ID : 2
Format : AC-3
Format/Info : Audio Coding 3
Commercial name : Dolby Digital
Codec ID : A_AC3
Duration : 1 h 47 min
Bit rate mode : Constant
Bit rate : 448 kb/s
Channel(s) : 6 channels
Channel layout : L R C LFE Ls Rs
Sampling rate : 48.0 kHz
Frame rate : 31.250 FPS (1536 SPF)
Bit depth : 16 bits
Compression mode : Lossy
Stream size : 345 MiB (9%)
Title : Thai DVD Master
Language : Thai
Service kind : Complete Main
Default : Yes
Forced : Yes

Audio #2
ID : 3
Format : DTS
Format/Info : Digital Theater Systems
Codec ID : A_DTS
Duration : 1 h 47 min
Bit rate mode : Constant
Bit rate : 768 kb/s
Channel(s) : 6 channels
Channel layout : C L R Ls Rs LFE
Sampling rate : 48.0 kHz
Frame rate : 93.750 FPS (512 SPF)
Bit depth : 24 bits
Compression mode : Lossy
Stream size : 591 MiB (15%)
Title : Chinese DTS
Language : Chinese
Default : No
Forced : No

Text #1
ID : 4
Format : VobSub
Codec ID : S_VOBSUB
Codec ID/Info : Picture based subtitle format used on DVDs
Title : Thai 720p
Language : Thai
Default : No
Forced : No

Text #2
ID : 5
Format : VobSub
Codec ID : S_VOBSUB
Codec ID/Info : Picture based subtitle format used on DVDs
Title : Thai 1080p
Language : Thai
Default : Yes
Forced : Yes

Text #3
ID : 6
Format : VobSub
Codec ID : S_VOBSUB
Codec ID/Info : Picture based subtitle format used on DVDs
Title : Thai 1080p Yellow
Language : Thai
Default : No
Forced : No

Text #4
ID : 7
Format : VobSub
Codec ID : S_VOBSUB
Codec ID/Info : Picture based subtitle format used on DVDs
Title : Thai 1080p Out
Language : Thai
Default : No
Forced : No

Text #5
ID : 8
Format : VobSub
Codec ID : S_VOBSUB
Codec ID/Info : Picture based subtitle format used on DVDs
Title : Thai 1080p BIG
Language : Thai
Default : No
Forced : No

Text #6
ID : 9
Format : VobSub
Codec ID : S_VOBSUB
Codec ID/Info : Picture based subtitle format used on DVDs
Title : Thai 1080p Out [BIG]
Language : Thai
Default : No
Forced : No

Text #7
ID : 10
Format : PGS
Codec ID : S_HDMV/PGS
Codec ID/Info : Picture based subtitle format used on BDs/HD-DVDs
Title : Thai PGS
Language : Thai
Default : No
Forced : No

Text #8
ID : 11
Format : PGS
Codec ID : S_HDMV/PGS
Codec ID/Info : Picture based subtitle format used on BDs/HD-DVDs
Title : Thai PGS Yellow
Language : Thai
Default : No
Forced : No

Text #9
ID : 12
Format : PGS
Codec ID : S_HDMV/PGS
Codec ID/Info : Picture based subtitle format used on BDs/HD-DVDs
Title : Thai PGS Out
Language : Thai
Default : No
Forced : No

Text #10
ID : 13
Format : PGS
Codec ID : S_HDMV/PGS
Codec ID/Info : Picture based subtitle format used on BDs/HD-DVDs
Title : English
Language : English
Default : No
Forced : No

Menu
00:00:00.000 : en:Chapter 1
00:05:47.125 : en:Chapter 2
00:11:29.958 : en:Chapter 3
00:15:46.500 : en:Chapter 4
00:19:10.500 : en:Chapter 5
00:28:58.875 : en:Chapter 6
00:33:33.375 : en:Chapter 7
00:38:34.542 : en:Chapter 8
00:48:14.833 : en:Chapter 9
00:53:38.958 : en:Chapter 10
01:00:10.292 : en:Chapter 11
01:04:38.583 : en:Chapter 12
01:09:35.792 : en:Chapter 13
01:19:20.625 : en:Chapter 14
01:22:56.000 : en:Chapter 15
01:27:42.917 : en:Chapter 16
01:34:36.708 : en:Chapter 17
01:42:54.417 : en:Chapter 18

DOWNLOAD


PART01 |||| PART02 |||| PART03 |||| PART04

PART01 |||| PART02 |||| PART03 |||| PART04

PART01 |||| PART02 |||| PART03 |||| PART04

PART01 |||| PART02 |||| PART03 |||| PART04

PART01 |||| PART02 |||| PART03 |||| PART04


Leave A Reply

อีเมล์ของคุณจะไม่แสดงให้เห็น Your email address will not be published.

%d bloggers like this: