[MINI Super-HQ] Mary and the Witch’s Flower (2017) แมรี่ ผจญแดนแม่มด [1080p] [พากย์ไทย DTS + เสียงญี่ปุ่น DTS] [บรรยายไทย + อังกฤษ] [เสียงไทย + ซับไทย] [PANDAFILE]

2

Mary and the Witch's Flower (2017) แมรี่ ผจญแดนแม่มด

โหลดหนัง Mary and the Witch’s Flower (2017) แมรี่ ผจญแดนแม่มด

Mary and the Witch's Flower | July 8, 2017 (Japan) Summary: Based on "The Little Broomstick" by Mary Stewart, a strange flower grants a girl magic powers.
Countries: JapanLanguages: Japanese

เรื่องย่อ Mary and the Witch’s Flower (2017) แมรี่ ผจญแดนแม่มด

การผจญภัยของ “แมรี” เด็กหญิงจอมซนที่จับพลัดจับผลูเข้ามาผจญภัยในโลกของแม่มด เมื่อเธอค้นพบของวิเศษ 3 ชิ้น คือ “เมล็ดพันธุ์เวทมนตร์, ตำราเวทย์แม่มด, พาหนะนำทาง” เมล็ดพันธุ์ทำให้เธอมีพลังวิเศษเป็นเวลา 1 คืน แมรีใช้พลังวิเศษเดินทางไปยังโลกเวทมนตร์และได้เผชิญแผนการชั่วร้ายของแม่มดลึกลับแมรีจึงตัดสินใจที่จะใช้เวลา 1 คืนหยุดยั้งแผนการนั้นและปลดปล่อยเหล่าสัตว์เวทย์เพื่อนใหม่ของเธอที่ถูกกักขังโดยพลังความชั่วร้ายให้เป็นอิสระ

Complete name : [MINI Super-HQ]_Mary.and.The.Witc.s.Flower.2017.1080p.BrRip.DTS.x264.DTS.One2loadup.com.mkv
Format : Matroska
Format version : Version 4 / Version 2
File size : 3.87 GiB
Duration : 1 h 42 min
Overall bit rate : 5 385 kb/s
Movie name : [MINI Super-HQ]_Mary.and.The.Witc.s.Flower.2017.1080p.BrRip.DTS.x264.DTS.One2loadup.com
Encoded date : UTC 2010-02-22 21:41:31
Writing application : mkvmerge v5.9.0 (‘On The Loose’) built on Dec 9 2012 15:37:01
Writing library : libebml v1.3.0 + libmatroska v1.4.0

Video
ID : 1
Format : AVC
Format/Info : Advanced Video Codec
Format profile : [email protected]
Format settings : CABAC / 4 Ref Frames
Format settings, CABAC : Yes
Format settings, ReFrames : 4 frames
Codec ID : V_MPEG4/ISO/AVC
Bit rate : 3 808 kb/s
Width : 1 920 pixels
Height : 1 036 pixels
Display aspect ratio : 1.85:1
Frame rate mode : Variable
Color space : YUV
Chroma subsampling : 4:2:0
Bit depth : 8 bits
Scan type : Progressive
Title : [MINI Super-HQ]_Mary.and.The.Witc.s.Flower.2017.1080p.BrRip.DTS.x264.DTS.One2loadup.com
Writing library : x264 core 130 r2273 b3065e6
Encoding settings : cabac=1 / ref=3 / deblock=1:0:0 / analyse=0x3:0x113 / me=umh / subme=11 / psy=1 / psy_rd=1.00:0.00 / mixed_ref=1 / me_range=48 / chroma_me=1 / trellis=2 / 8x8dct=1 / cqm=0 / deadzone=21,11 / fast_pskip=1 / chroma_qp_offset=-2 / threads=10 / lookahead_threads=1 / sliced_threads=0 / nr=0 / decimate=1 / interlaced=0 / bluray_compat=0 / constrained_intra=0 / bframes=3 / b_pyramid=2 / b_adapt=1 / b_bias=0 / direct=1 / weightb=1 / open_gop=0 / weightp=2 / keyint=240 / keyint_min=24 / scenecut=40 / intra_refresh=0 / rc_lookahead=40 / rc=2pass / mbtree=1 / bitrate=3808 / ratetol=1.0 / qcomp=0.60 / qpmin=0 / qpmax=69 / qpstep=4 / cplxblur=20.0 / qblur=0.5 / ip_ratio=1.40 / aq=1:1.00
Language : Japanese
Default : Yes
Forced : No
Color range : Limited
Color primaries : BT.709
Transfer characteristics : BT.709
Matrix coefficients : BT.709

Audio #1
ID : 2
Format : DTS
Format/Info : Digital Theater Systems
Codec ID : A_DTS
Duration : 1 h 42 min
Bit rate mode : Constant
Bit rate : 755 kb/s
Channel(s) : 6 channels
Channel positions : Front: L C R, Side: L R, LFE
Sampling rate : 48.0 kHz
Frame rate : 93.750 FPS (512 SPF)
Bit depth : 24 bits
Compression mode : Lossy
Stream size : 555 MiB (14%)
Title : Thai DTS BluRay Master
Language : Thai
Default : Yes
Forced : Yes

Audio #2
ID : 3
Format : DTS
Format/Info : Digital Theater Systems
Codec ID : A_DTS
Duration : 1 h 42 min
Bit rate mode : Constant
Bit rate : 755 kb/s
Channel(s) : 6 channels
Channel positions : Front: L C R, Side: L R, LFE
Sampling rate : 48.0 kHz
Frame rate : 93.750 FPS (512 SPF)
Bit depth : 24 bits
Compression mode : Lossy
Stream size : 555 MiB (14%)
Title : Japanese DTS
Language : Japanese
Default : No
Forced : No

Text #1
ID : 4
Format : VobSub
Codec ID : S_VOBSUB
Codec ID/Info : Picture based subtitle format used on DVDs
Language : Thai
Default : Yes
Forced : Yes

Text #2
ID : 5
Format : VobSub
Codec ID : S_VOBSUB
Codec ID/Info : Picture based subtitle format used on DVDs
Title : Thai 480p
Language : Thai
Default : No
Forced : No

Text #3
ID : 6
Format : VobSub
Codec ID : S_VOBSUB
Codec ID/Info : Picture based subtitle format used on DVDs
Title : Thai 720p
Language : Thai
Default : No
Forced : No

Text #4
ID : 7
Format : VobSub
Codec ID : S_VOBSUB
Codec ID/Info : Picture based subtitle format used on DVDs
Title : Thai 1080p
Language : Thai
Default : No
Forced : No

Text #5
ID : 8
Format : VobSub
Codec ID : S_VOBSUB
Codec ID/Info : Picture based subtitle format used on DVDs
Title : Thai 1080p Yellow
Language : Thai
Default : No
Forced : No

Text #6
ID : 9
Format : VobSub
Codec ID : S_VOBSUB
Codec ID/Info : Picture based subtitle format used on DVDs
Title : Thai 1080p BIG
Language : Thai
Default : No
Forced : No

Text #7
ID : 10
Format : PGS
Codec ID : S_HDMV/PGS
Codec ID/Info : Picture based subtitle format used on BDs/HD-DVDs
Title : Thai PGS BluRay Master
Language : Thai
Default : No
Forced : No

Text #8
ID : 11
Format : VobSub
Codec ID : S_VOBSUB
Codec ID/Info : Picture based subtitle format used on DVDs
Title : English
Language : English
Default : No
Forced : No

Menu
00:00:00.000 : en:Chapter 1
00:05:18.541 : en:Chapter 2
00:12:25.208 : en:Chapter 3
00:24:02.500 : en:Chapter 4
00:34:06.416 : en:Chapter 5
00:42:10.750 : en:Chapter 6
00:52:06.750 : en:Chapter 7
00:59:09.541 : en:Chapter 8
01:06:52.208 : en:Chapter 9
01:14:59.958 : en:Chapter 10
01:22:14.375 : en:Chapter 11
01:28:13.250 : en:Chapter 12

DOWNLOAD


PART01 |||| PART02 |||| PART03 |||| PART04

PART01 |||| PART02 |||| PART03 |||| PART04

PART01 |||| PART02 |||| PART03 |||| PART04

PART01 |||| PART02 |||| PART03 |||| PART04


2 Comments
  1. Darknesis says

    ไฟล์เสียทุกเว็บเลยครับ

    1. Admin
      Admin says

      แก้ไขเรียบร้อยฮ๊ะ

Leave A Reply

อีเมล์ของคุณจะไม่แสดงให้เห็น Your email address will not be published.

%d bloggers like this: