[MINI Super-HQ] Luckiest Girl Alive (2022) ให้ตายสิ… ใครๆ ก็อิจฉา [1080p] [NETFLIX] [พากย์ไทย 5.1 + เสียงอังกฤษ 5.1] [บรรยายไทย + อังกฤษ] [เสียงไทย + ซับไทย] [DOSYAUPLOAD]

0

โหลดหนัง Luckiest Girl Alive (2022) ให้ตายสิ… ใครๆ ก็อิจฉา

Luckiest Girl Alive | October 7, 2022 (United States) Summary: A woman in New York, who seems to have things under control, is faced with a trauma that makes her life unravel.
Countries: United StatesLanguages: English

เรื่องย่อ Luckiest Girl Alive (2022) ให้ตายสิ… ใครๆ ก็อิจฉา

ชีวิตอันสมบูรณ์แบบในนิวยอร์กของนักเขียนสาวเริ่มสั่นคลอน เมื่อสารคดีอาชญากรรมจากเรื่องจริงบีบให้เธอต้องเผชิญหน้ากับอดีตและความทรงจำอันเลวร้ายสมัยช่วงมัธยมปลาย

Complete name : [MINI Super-HQ]_Luckiest.Girl.Alive.2022.1080p.NF.WEB-DL.EAC3.x264.One2oadup.com.mkv
Format : Matroska
Format version : Version 4
File size : 4.30 GiB
Duration : 1 h 55 min
Overall bit rate : 5 340 kb/s
Movie name : [MINI Super-HQ]_Luckiest.Girl.Alive.2022.1080p.NF.WEB-DL.EAC3.x264.One2oadup.com
Encoded date : UTC 2022-10-10 03:58:15
Writing application : mkvmerge v67.0.0 (‘Under Stars’) 64-bit
Writing library : libebml v1.4.2 + libmatroska v1.6.4

Video
ID : 1
Format : AVC
Format/Info : Advanced Video Codec
Format profile : [email protected]
Format settings : CABAC / 3 Ref Frames
Format settings, CABAC : Yes
Format settings, Reference : 3 frames
Codec ID : V_MPEG4/ISO/AVC
Duration : 1 h 55 min
Bit rate : 3 855 kb/s
Width : 1 920 pixels
Height : 800 pixels
Display aspect ratio : 2.40:1
Frame rate mode : Constant
Frame rate : 24.000 FPS
Color space : YUV
Chroma subsampling : 4:2:0
Bit depth : 8 bits
Scan type : Progressive
Bits/(Pixel*Frame) : 0.105
Stream size : 3.10 GiB (72%)
Title : [MINI Super-HQ]_Luckiest.Girl.Alive.2022.1080p.NF.WEB-DL.EAC3.x264.One2oadup.com
Language : English
Default : Yes
Forced : No

Audio #1
ID : 2
Format : E-AC-3 JOC
Format/Info : Enhanced AC-3 with Joint Object Coding
Commercial name : Dolby Digital Plus with Dolby Atmos
Codec ID : A_EAC3
Duration : 1 h 55 min
Bit rate mode : Constant
Bit rate : 768 kb/s
Channel(s) : 6 channels
Channel layout : L R C LFE Ls Rs
Sampling rate : 48.0 kHz
Frame rate : 31.250 FPS (1536 SPF)
Compression mode : Lossy
Stream size : 633 MiB (14%)
Title : E-AC3 Atmos English
Language : English
Service kind : Complete Main
Default : No
Forced : No
Complexity index : 16
Number of dynamic objects : 15
Bed channel count : 1 channel
Bed channel configuration : LFE

Audio #2
ID : 3
Format : E-AC-3
Format/Info : Enhanced AC-3
Commercial name : Dolby Digital Plus
Codec ID : A_EAC3
Duration : 1 h 55 min
Bit rate mode : Constant
Bit rate : 640 kb/s
Channel(s) : 6 channels
Channel layout : L R C LFE Ls Rs
Sampling rate : 48.0 kHz
Frame rate : 31.250 FPS (1536 SPF)
Compression mode : Lossy
Stream size : 528 MiB (12%)
Title : E-AC3 Thai
Language : Thai
Service kind : Complete Main
Default : Yes
Forced : No

Text #1
ID : 4
Format : VobSub
Muxing mode : zlib
Codec ID : S_VOBSUB
Codec ID/Info : Picture based subtitle format used on DVDs
Duration : 1 h 52 min
Bit rate : 14.6 kb/s
Count of elements : 1439
Stream size : 11.7 MiB (0%)
Title : Sub Thai 1080p
Language : Thai
Default : No
Forced : No

Text #2
ID : 5
Format : UTF-8
Codec ID : S_TEXT/UTF8
Codec ID/Info : UTF-8 Plain Text
Duration : 1 h 52 min
Bit rate : 149 b/s
Count of elements : 1439
Stream size : 123 KiB (0%)
Title : Sub Thai SRT
Language : Thai
Default : No
Forced : No

Text #3
ID : 6
Format : PGS
Muxing mode : zlib
Codec ID : S_HDMV/PGS
Codec ID/Info : Picture based subtitle format used on BDs/HD-DVDs
Duration : 1 h 52 min
Bit rate : 44.0 kb/s
Count of elements : 2878
Stream size : 35.4 MiB (1%)
Title : Sub Thai PGS
Language : Thai
Default : No
Forced : No

Text #4
ID : 7
Format : PGS
Muxing mode : zlib
Codec ID : S_HDMV/PGS
Codec ID/Info : Picture based subtitle format used on BDs/HD-DVDs
Duration : 1 h 52 min
Bit rate : 71.2 kb/s
Count of elements : 2878
Stream size : 57.3 MiB (1%)
Title : Sub Thai PGS NETFLIX
Language : Thai
Default : Yes
Forced : No

Text #5
ID : 8
Format : UTF-8
Codec ID : S_TEXT/UTF8
Codec ID/Info : UTF-8 Plain Text
Duration : 1 h 44 min
Bit rate : 2 b/s
Count of elements : 21
Stream size : 2.00 KiB (0%)
Title : Sub Thai Forced
Language : Thai
Default : No
Forced : Yes

Text #6
ID : 9
Format : UTF-8
Codec ID : S_TEXT/UTF8
Codec ID/Info : UTF-8 Plain Text
Duration : 1 h 49 min
Bit rate : 80 b/s
Count of elements : 1938
Stream size : 65.0 KiB (0%)
Title : Sub English SRT
Language : English
Default : No
Forced : No

DOWNLOAD


PART01 |||| PART02 |||| PART03 |||| PART04 |||| PART05

PART01 |||| PART02 |||| PART03 |||| PART04 |||| PART05

PART01 |||| PART02 |||| PART03 |||| PART04 |||| PART05

PART01 |||| PART02 |||| PART03 |||| PART04 |||| PART05

PART01 |||| PART02 |||| PART03 |||| PART04 |||| PART05


Leave A Reply

อีเมล์ของคุณจะไม่แสดงให้เห็น Your email address will not be published.

%d bloggers like this: