[MINI Super-HQ] Luca (2021) ลูก้า [1080p] [พากย์ไทย 5.1 + เสียงอังกฤษ DTS] [บรรยายไทย + อังกฤษ] [เสียงไทย + ซับไทย] [DOSYAUPLOAD]

0

โหลดหนัง Luca (2021) ลูก้า

Luca (2021) 95min | Animation, Adventure, Comedy, Family, Fantasy | June 18, 2021 (United States) Summary: On the Italian Riviera, an unlikely but strong friendship grows between a human being and a sea monster disguised as a human.
Countries: United StatesLanguages: English, Italian

เรื่องย่อ Luca (2021) ลูก้า

เรื่องราวของการก้าวข้ามวัยของเด็กชายคนหนึ่งกับประสบการณ์ในหน้าร้อนที่ยากจะลืม ที่เต็มไปด้วยเจลาโต้ พาสต้า และการขี่สกู๊ตเตอร์แบบไม่รู้จบ ลูก้าได้ออกผจญภัยไปกับเพื่อนซี้คนใหม่ที่เพิ่งได้เจอ แต่ความสนุกทั้งหลายก็ถูกขัดขวางโดยความลับที่ถูกเก็บไว้ ว่าพวกเขาคือมอนสเตอร์ใต้ทะเลลึกจากโลกใต้น้ำ

Complete name : [MINI Super-HQ]_Luca.2021.1080p.BrRip.DTS.x264.One2loadup.com.mkv
Format : Matroska
Format version : Version 4
File size : 3.63 GiB
Duration : 1 h 35 min
Overall bit rate : 5 460 kb/s
Movie name : [MINI Super-HQ]_Luca.2021.1080p.BrRip.DTS.x264.One2loadup.com
Encoded date : UTC 2021-09-29 09:30:54
Writing application : mkvmerge v9.8.0 (‘Kuglblids’) 64bit
Writing library : libebml v1.3.4 + libmatroska v1.4.5

Video
ID : 1
Format : AVC
Format/Info : Advanced Video Codec
Format profile : [email protected]
Format settings : CABAC / 4 Ref Frames
Format settings, CABAC : Yes
Format settings, Reference : 4 frames
Codec ID : V_MPEG4/ISO/AVC
Duration : 1 h 35 min
Bit rate : 4 100 kb/s
Width : 1 920 pixels
Height : 1 036 pixels
Display aspect ratio : 1.85:1
Frame rate mode : Constant
Frame rate : 23.976 (24000/1001) FPS
Color space : YUV
Chroma subsampling : 4:2:0
Bit depth : 8 bits
Scan type : Progressive
Bits/(Pixel*Frame) : 0.086
Stream size : 2.73 GiB (75%)
Title : [MINI Super-HQ]_Luca.2021.1080p.BrRip.DTS.x264.One2loadup.com
Writing library : x264 core 157 r2935 545de2f
Encoding settings : cabac=1 / ref=4 / deblock=1:0:0 / analyse=0x1:0x131 / me=tesa / subme=11 / psy=1 / psy_rd=1.00:0.00 / mixed_ref=1 / me_range=24 / chroma_me=1 / trellis=2 / 8x8dct=0 / cqm=0 / deadzone=21,11 / fast_pskip=0 / chroma_qp_offset=-2 / threads=12 / lookahead_threads=3 / sliced_threads=0 / nr=0 / decimate=1 / interlaced=0 / bluray_compat=0 / constrained_intra=0 / bframes=16 / b_pyramid=2 / b_adapt=2 / b_bias=0 / direct=3 / weightb=1 / open_gop=0 / weightp=2 / keyint=240 / keyint_min=24 / scenecut=40 / intra_refresh=0 / rc_lookahead=60 / rc=2pass / mbtree=1 / bitrate=4100 / ratetol=1.0 / qcomp=0.60 / qpmin=0 / qpmax=69 / qpstep=4 / cplxblur=20.0 / qblur=0.5 / vbv_maxrate=50000 / vbv_bufsize=62500 / nal_hrd=none / filler=0 / ip_ratio=1.40 / aq=1:1.00
Language : English
Default : Yes
Forced : No
Color range : Limited
Color primaries : BT.709
Transfer characteristics : BT.709
Matrix coefficients : BT.709

Audio #1
ID : 2
Format : AC-3
Format/Info : Audio Coding 3
Commercial name : Dolby Digital
Codec ID : A_AC3
Duration : 1 h 35 min
Bit rate mode : Constant
Bit rate : 448 kb/s
Channel(s) : 6 channels
Channel layout : L R C LFE Ls Rs
Sampling rate : 48.0 kHz
Frame rate : 31.250 FPS (1536 SPF)
Compression mode : Lossy
Stream size : 305 MiB (8%)
Title : Thai 5.1 Master
Language : Thai
Service kind : Complete Main
Default : Yes
Forced : Yes

Audio #2
ID : 3
Format : DTS
Format/Info : Digital Theater Systems
Codec ID : A_DTS
Duration : 1 h 35 min
Bit rate mode : Constant
Bit rate : 755 kb/s
Channel(s) : 6 channels
Channel layout : C L R Ls Rs LFE
Sampling rate : 48.0 kHz
Frame rate : 93.750 FPS (512 SPF)
Bit depth : 24 bits
Compression mode : Lossy
Stream size : 514 MiB (14%)
Title : English DTS-5.1
Language : English
Default : No
Forced : No

Text #1
ID : 4
Format : VobSub
Codec ID : S_VOBSUB
Codec ID/Info : Picture based subtitle format used on DVDs
Duration : 1 h 33 min
Bit rate : 9 015 b/s
Count of elements : 1311
Stream size : 6.05 MiB (0%)
Title : Thai 1080p
Language : Thai
Default : Yes
Forced : Yes

Text #2
ID : 5
Format : PGS
Codec ID : S_HDMV/PGS
Codec ID/Info : Picture based subtitle format used on BDs/HD-DVDs
Duration : 1 h 33 min
Bit rate : 38.3 kb/s
Count of elements : 2622
Stream size : 25.7 MiB (1%)
Title : Thai 1080p PGS
Language : Thai
Default : No
Forced : No

Text #3
ID : 6
Format : VobSub
Codec ID : S_VOBSUB
Codec ID/Info : Picture based subtitle format used on DVDs
Duration : 1 h 33 min
Bit rate : 8 917 b/s
Count of elements : 1311
Stream size : 5.98 MiB (0%)
Title : Thai 1080p Out
Language : Thai
Default : No
Forced : No

Text #4
ID : 7
Format : PGS
Codec ID : S_HDMV/PGS
Codec ID/Info : Picture based subtitle format used on BDs/HD-DVDs
Duration : 1 h 33 min
Bit rate : 37.9 kb/s
Count of elements : 2622
Stream size : 25.4 MiB (1%)
Title : Thai 1080p Out PGS
Language : Thai
Default : No
Forced : No

Text #5
ID : 8
Format : VobSub
Codec ID : S_VOBSUB
Codec ID/Info : Picture based subtitle format used on DVDs
Duration : 1 h 33 min
Bit rate : 12.3 kb/s
Count of elements : 1311
Stream size : 8.29 MiB (0%)
Title : Thai 1080p Big [Yellow]
Language : Thai
Default : No
Forced : No

Text #6
ID : 9
Format : PGS
Codec ID : S_HDMV/PGS
Codec ID/Info : Picture based subtitle format used on BDs/HD-DVDs
Duration : 1 h 34 min
Bit rate : 50.8 kb/s
Count of elements : 3982
Stream size : 34.3 MiB (1%)
Title : English PGS
Language : English
Default : No
Forced : No

Menu
00:00:00.000 : en:Chapter 01
00:02:27.898 : en:Chapter 02
00:06:27.220 : en:Chapter 03
00:08:29.884 : en:Chapter 04
00:11:19.512 : en:Chapter 05
00:14:35.291 : en:Chapter 06
00:16:30.197 : en:Chapter 07
00:17:07.735 : en:Chapter 08
00:21:19.486 : en:Chapter 09
00:23:31.994 : en:Chapter 10
00:26:01.393 : en:Chapter 11
00:28:11.815 : en:Chapter 12
00:32:55.515 : en:Chapter 13
00:35:39.971 : en:Chapter 14
00:37:29.372 : en:Chapter 15
00:41:38.204 : en:Chapter 16
00:42:25.876 : en:Chapter 17
00:45:04.118 : en:Chapter 18
00:46:06.680 : en:Chapter 19
00:48:53.639 : en:Chapter 20
00:51:00.098 : en:Chapter 21
00:52:04.746 : en:Chapter 22
00:54:33.562 : en:Chapter 23
00:56:18.834 : en:Chapter 24
00:58:30.340 : en:Chapter 25
01:00:07.520 : en:Chapter 26
01:00:43.598 : en:Chapter 27
01:02:10.059 : en:Chapter 28
01:04:51.929 : en:Chapter 29
01:06:49.088 : en:Chapter 30
01:09:33.836 : en:Chapter 31
01:13:19.978 : en:Chapter 32
01:16:47.477 : en:Chapter 33
01:19:33.476 : en:Chapter 34
01:20:53.723 : en:Chapter 35
01:24:34.944 : en:Chapter 36
01:33:41.532 : en:Chapter 37

DOWNLOAD


PART01 |||| PART02 |||| PART03 |||| PART04

PART01 |||| PART02 |||| PART03 |||| PART04

PART01 |||| PART02 |||| PART03 |||| PART04

PART01 |||| PART02 |||| PART03 |||| PART04

PART01 |||| PART02 |||| PART03 |||| PART04


Leave A Reply

อีเมล์ของคุณจะไม่แสดงให้เห็น Your email address will not be published.

%d bloggers like this: