[MINI Super-HQ] Like a Boss (2020) เพื่อนรักหักเหลี่ยมรวย [1080p] [พากย์ไทย 5.1 + เสียงอังกฤษ DTS] [บรรยายไทย + อังกฤษ] [เสียงไทย + ซับไทย] [PANDAFILE]

0

โหลดหนัง Like a Boss (2020) เพื่อนรักหักเหลี่ยมรวย

Like a Boss (2020) 1h 23min | Comedy | 10 January 2020 (USA) Summary: Two friends with very different ideals start a beauty company together. One is more practical while the other wants to earn her fortune and live a lavish lifestyle.
Countries: USALanguages: English, Spanish, French, Russian

เรื่องย่อ Like a Boss (2020) เพื่อนรักหักเหลี่ยมรวย

เพื่อนสองคนที่มีบุคลิกที่แตกต่างกันมากคือ Mia & Mel ซึ่งเป็น บริษัท ด้านความงามของตัวเอง Mia ปฏิบัติได้จริงและสร้างสรรค์มากขึ้นในขณะที่ Mel ต้องการรับโชคของเธออย่างรวดเร็วและใช้ชีวิตอย่างฟุ่มเฟือยสิ่งต่าง ๆ กลับกลายเป็นเรื่องเลวร้ายยิ่งขึ้นเมื่อ บริษัท ของพวกเขาตกอยู่ในภาวะหนี้สินบังคับให้พวกเขาหันไปหา ผู้มีอุปการะที่ไร้ยางอายแคลร์ลูน่าหัวหน้ากลุ่มเครื่องสำอางสำคัญที่ตั้งใจจะขโมยธุรกิจจากพวกเขา ทั้งสองจะต้องจัดการกับความแตกต่างของพวกเขาเพื่อช่วยธุรกิจของพวกเขาขณะที่พวกเขาเผชิญกับความท้าทายในการ ‘พิสูจน์’ ตัวเองเพื่อลูน่าแม้ในขณะที่ลูน่าขโมยแนวคิดเรื่องถุง ‘หนึ่งคืน – ยืน’ และทำการตลาดผ่าน บริษัท อื่นแห่งหนึ่งของเธอ รวมทั้งบังคับให้พวกเขายิงคนงานเก่าของพวกเขา Mia และ Mel ‘แยกกัน’ สั้น ๆ ผ่านวิธีการต่าง ๆ ในการเสนอของ Luna แต่พวกเขากลับมาคืนดีเมื่อเพื่อนของพวกเขาช่วยให้พวก เขาเผชิญหน้ากับวิธีที่พวกเขาต้องการกันและกัน เผชิญหน้ากับความสูญเสียที่อาจเกิดขึ้นกับธุรกิจของพวกเขา Mia และ Mel แนวทาง Shay อดีตหุ้นส่วนธุรกิจของ Luna เพื่อก่อตั้ง บริษัท ใหม่ Proud Cosmetics การตลาดผลิตภัณฑ์ ‘Ride or Die’ ใหม่ของพวกเขา เพื่อเผชิญหน้ากับค่ำคืนของพวกเขา ด้วยช่องโหว่นี้ Mia และ Mel สามารถผลิตและทำการตลาด ‘Ride or Die’ ภายใต้แบนเนอร์ ‘Proud’ ในขณะที่ Luna รับกรรมสิทธิ์ของ Mia & Mel ในขณะที่ยังคงต้องจ่าย 49% ของกำไรที่ตามมาทั้งหมด…!!!

Complete name : [MINI Super-HQ]_Like.a.Boss.2020.1080p.BrRip.DTS.x264.One2loadup.com.mkv
Format : Matroska
Format version : Version 4
File size : 3.93 GiB
Duration : 1 h 23 min
Overall bit rate : 6 753 kb/s
Movie name : [MINI Super-HQ]_Like.a.Boss.2020.1080p.BrRip.DTS.x264.One2loadup.com
Encoded date : UTC 2010-02-22 21:41:31
Writing application : mkvmerge v5.9.0 (‘On The Loose’) built on Dec 9 2012 15:37:01
Writing library : libebml v1.3.0 + libmatroska v1.4.0

Video
ID : 1
Format : AVC
Format/Info : Advanced Video Codec
Format profile : [email protected]
Format settings : CABAC / 4 Ref Frames
Format settings, CABAC : Yes
Format settings, ReFrames : 4 frames
Codec ID : V_MPEG4/ISO/AVC
Duration : 1 h 23 min
Bit rate : 5 251 kb/s
Width : 1 920 pixels
Height : 800 pixels
Display aspect ratio : 2.40:1
Frame rate mode : Constant
Frame rate : 23.976 (24000/1001) FPS
Color space : YUV
Chroma subsampling : 4:2:0
Bit depth : 8 bits
Scan type : Progressive
Bits/(Pixel*Frame) : 0.143
Stream size : 3.19 GiB (81%)
Title : [MINI Super-HQ]_Like.a.Boss.2020.1080p.BrRip.DTS.x264.One2loadup.com
Writing library : x264 core 146 r2538 121396c
Encoding settings : cabac=1 / ref=5 / deblock=1:-3:-3 / analyse=0x3:0x133 / me=tesa / subme=11 / psy=1 / psy_rd=1.00:0.15 / mixed_ref=1 / me_range=48 / chroma_me=1 / trellis=2 / 8x8dct=1 / cqm=0 / deadzone=21,11 / fast_pskip=1 / chroma_qp_offset=-3 / threads=54 / lookahead_threads=4 / sliced_threads=0 / nr=0 / decimate=1 / interlaced=0 / bluray_compat=1 / constrained_intra=0 / bframes=3 / b_pyramid=1 / b_adapt=2 / b_bias=0 / direct=3 / weightb=1 / open_gop=0 / weightp=1 / keyint=250 / keyint_min=1 / scenecut=40 / intra_refresh=0 / rc_lookahead=60 / rc=2pass / mbtree=1 / bitrate=5251 / ratetol=1.0 / qcomp=0.60 / qpmin=0 / qpmax=69 / qpstep=4 / cplxblur=20.0 / qblur=0.5 / ip_ratio=1.40 / aq=1:1.30
Language : English
Default : Yes
Forced : No

Audio #1
ID : 2
Format : E-AC-3
Format/Info : Enhanced AC-3
Commercial name : Dolby Digital Plus
Codec ID : A_EAC3
Duration : 1 h 23 min
Bit rate mode : Constant
Bit rate : 384 kb/s
Channel(s) : 6 channels
Channel layout : L R C LFE Ls Rs
Sampling rate : 48.0 kHz
Frame rate : 31.250 FPS (1536 SPF)
Compression mode : Lossy
Stream size : 229 MiB (6%)
Title : Thai Master 5.1
Language : Thai
Service kind : Complete Main
Default : Yes
Forced : Yes

Audio #2
ID : 3
Format : DTS
Format/Info : Digital Theater Systems
Codec ID : A_DTS
Duration : 1 h 23 min
Bit rate mode : Constant
Bit rate : 755 kb/s
Channel(s) : 6 channels
Channel layout : C L R Ls Rs LFE
Sampling rate : 48.0 kHz
Frame rate : 93.750 FPS (512 SPF)
Bit depth : 24 bits
Compression mode : Lossy
Stream size : 450 MiB (11%)
Title : English DTS
Language : English
Default : No
Forced : No

Text #1
ID : 4
Format : VobSub
Codec ID : S_VOBSUB
Codec ID/Info : Picture based subtitle format used on DVDs
Title : Thai 720p
Language : Thai
Default : No
Forced : No

Text #2
ID : 5
Format : VobSub
Codec ID : S_VOBSUB
Codec ID/Info : Picture based subtitle format used on DVDs
Title : Thai 1080p
Language : Thai
Default : Yes
Forced : Yes

Text #3
ID : 6
Format : VobSub
Codec ID : S_VOBSUB
Codec ID/Info : Picture based subtitle format used on DVDs
Title : Thai 1080p Yellow
Language : Thai
Default : No
Forced : No

Text #4
ID : 7
Format : VobSub
Codec ID : S_VOBSUB
Codec ID/Info : Picture based subtitle format used on DVDs
Title : Thai 1080p Out
Language : Thai
Default : No
Forced : No

Text #5
ID : 8
Format : VobSub
Codec ID : S_VOBSUB
Codec ID/Info : Picture based subtitle format used on DVDs
Title : Thai 1080p BIG
Language : Thai
Default : No
Forced : No

Text #6
ID : 9
Format : VobSub
Codec ID : S_VOBSUB
Codec ID/Info : Picture based subtitle format used on DVDs
Title : Thai 1080p Out [BIG]
Language : Thai
Default : No
Forced : No

Text #7
ID : 10
Format : PGS
Codec ID : S_HDMV/PGS
Codec ID/Info : Picture based subtitle format used on BDs/HD-DVDs
Title : Thai PGS
Language : Thai
Default : No
Forced : No

Text #8
ID : 11
Format : PGS
Codec ID : S_HDMV/PGS
Codec ID/Info : Picture based subtitle format used on BDs/HD-DVDs
Title : Thai PGS Yellow
Language : Thai
Default : No
Forced : No

Text #9
ID : 12
Format : PGS
Codec ID : S_HDMV/PGS
Codec ID/Info : Picture based subtitle format used on BDs/HD-DVDs
Title : Thai PGS Out
Language : Thai
Default : No
Forced : No

Text #10
ID : 13
Format : PGS
Codec ID : S_HDMV/PGS
Codec ID/Info : Picture based subtitle format used on BDs/HD-DVDs
Title : English
Language : English
Default : No
Forced : No

DOWNLOAD


PART01 |||| PART02 |||| PART03 |||| PART04

PART01 |||| PART02 |||| PART03 |||| PART04

PART01 |||| PART02 |||| PART03 |||| PART04

PART01 |||| PART02 |||| PART03 |||| PART04

PART01 |||| PART02 |||| PART03 |||| PART04



แจ้งหนังเสีย หรือโหลดไม่ได้ ทั้งลิ้งฟรีและ vip สามารถกดที่รูปด้านบนนี้ได้เลย

: Disable Comments
%d bloggers like this: