[MINI Super-HQ] Kung Fu Hustle (2004) คนเล็กหมัดเทวดา [1080p] [พากย์ไทย 5.1 + เสียงจีน DTS] [บรรยายไทย + อังกฤษ] [เสียงไทย + ซับไทย] [OPENLOAD]

5

Kung Fu Hustle (2004)

โหลดหนัง Kung Fu Hustle (2004) คนเล็กหมัดเทวดา

Kung fu (2004) 1h 39min | Action, Comedy, Fantasy | 14 July 2005 (Netherlands) Summary: In Shanghai, China in the 1940s, a wannabe gangster aspires to join the notorious "Axe Gang" while residents of a housing complex exhibit extraordinary powers in defending their turf.
Countries: Hong Kong, ChinaLanguages: Cantonese, Mandarin

เรื่องย่อ Kung Fu Hustle (2004) คนเล็กหมัดเทวดา

เซี่ยงไฮ้ช่วงยุค 1930 ซึ่งเป็นช่วงที่มีแก๊งอันธพาลขวานซิ่งครองเมือง พวกเขาได้เข้าไปก่อกวนในย่านที่เรียกว่า “ตรอกเล้าหมู” แต่ไม่สำเร็จเนื่องจากมีจอมยุทธซ่อนอยู่ในตรอกนี้หลังจากนั้น ซิง (โจว ซิงฉือ) โจรไร้ฝีมือที่ได้เข้ามาก่อกวนยังตรอกหมูแต่ไม่สำเร็จเพราะเขาคิดว่าเขามีวิทยายุทธเนื่องจากเขาได้ซื้อหนังสือกำลังภายในจากชายแปลกหน้าคนหนึ่งที่บอกเขาว่าเขาน่าจะฝึกวิชาในหนังสือนี้ได้โดยเขาซื้อในราคา 10 ดอลลาร์ หลังจากนั้นเขาได้ฝึกฝนเรื่อยมาและได้เข้าไปช่วยเด็กหญิงคนหนึ่งซึ่งเป็นใบ้ (หวง เซิงอี้) จากพวกเด็กอันธพาลแต่เขากลับถูกพวกนั้นทำร้ายร่างกายจนสะบักสะบอมหลังจากนั้น เขาได้เข้าไปเป็นสมาชิกแก๊งขวานซิ่งในที่สุดแต่เกิดหักหลังกันขึ้น ซิงกลับถูกหัวหน้าแก๊งคนใหม่ซึ่งฆ่าหัวหน้าแก๊งคนเก่าตายเล่นงานจนปางตาย แต่โชคดีได้สามีภรรยาเจ้าของหอพักช่วยรักษา และในที่สุดเขาก็สามารถเอาชนะหัวหน้าแก๊งขวานซิ่งได้สำเร็จ

Complete name : [MINI Super-HQ]_Kung.Fu.Hustle.2004.1080p.BrRip.DTS.x264.One2loadup.com.mkv
Format : Matroska
Format version : Version 4
File size : 4.03 GiB
Duration : 1 h 39 min
Overall bit rate mode : Variable
Overall bit rate : 5 808 kb/s
Movie name : [MINI Super-HQ]_Kung.Fu.Hustle.2004.1080p.BrRip.DTS.x264.One2loadup.com
Encoded date : UTC 2015-03-21 20:55:07
Writing application : mkvmerge v7.7.0 (‘Six Voices’) 64bit built on Feb 28 2015 23:39:33
Writing library : libebml v1.3.1 + libmatroska v1.4.2

Video
ID : 1
Format : AVC
Format/Info : Advanced Video Codec
Format profile : [email protected]
Format settings : CABAC / 4 Ref Frames
Format settings, CABAC : Yes
Format settings, ReFrames : 4 frames
Codec ID : V_MPEG4/ISO/AVC
Duration : 1 h 39 min
Bit rate mode : Variable
Bit rate : 4 500 kb/s
Maximum bit rate : 100.0 Mb/s
Width : 1 920 pixels
Height : 800 pixels
Display aspect ratio : 2.40:1
Frame rate mode : Constant
Frame rate : 23.976 (24000/1001) FPS
Color space : YUV
Chroma subsampling : 4:2:0
Bit depth : 8 bits
Scan type : Progressive
Bits/(Pixel*Frame) : 0.122
Stream size : 3.12 GiB (77%)
Title : [MINI Super-HQ]_Kung.Fu.Hustle.2004.1080p.BrRip.DTS.x264.One2loadup.com
Writing library : x264 core 120 r2145M 748fe16
Encoding settings : cabac=1 / ref=4 / deblock=1:0:0 / analyse=0x3:0x133 / me=umh / subme=11 / psy=1 / psy_rd=1.00:0.15 / mixed_ref=1 / me_range=64 / chroma_me=1 / trellis=2 / 8x8dct=1 / cqm=0 / deadzone=21,11 / fast_pskip=1 / chroma_qp_offset=-3 / threads=8 / sliced_threads=0 / nr=0 / decimate=1 / interlaced=0 / bluray_compat=0 / constrained_intra=0 / bframes=4 / b_pyramid=2 / b_adapt=2 / b_bias=0 / direct=3 / weightb=1 / open_gop=0 / weightp=2 / keyint=230 / keyint_min=23 / scenecut=40 / intra_refresh=0 / rc_lookahead=120 / rc=2pass / mbtree=1 / bitrate=4500 / ratetol=1.0 / qcomp=0.60 / qpmin=0 / qpmax=69 / qpstep=4 / cplxblur=20.0 / qblur=0.5 / vbv_maxrate=99999 / vbv_bufsize=99999 / nal_hrd=vbr / ip_ratio=1.40 / aq=1:1.00
Language : Chinese
Default : Yes
Forced : No

Audio #1
ID : 2
Format : DTS
Format/Info : Digital Theater Systems
Codec ID : A_DTS
Duration : 1 h 39 min
Bit rate mode : Constant
Bit rate : 755 kb/s
Channel(s) : 6 channels
Channel layout : C L R Ls Rs LFE
Sampling rate : 48.0 kHz
Frame rate : 93.750 FPS (512 SPF)
Bit depth : 24 bits
Compression mode : Lossy
Stream size : 537 MiB (13%)
Title : CHINESE DTS
Language : Chinese
Default : No
Forced : No

Audio #2
ID : 3
Format : AC-3
Format/Info : Audio Coding 3
Commercial name : Dolby Digital
Codec ID : A_AC3
Duration : 1 h 39 min
Bit rate mode : Constant
Bit rate : 448 kb/s
Channel(s) : 6 channels
Channel layout : L R C LFE Ls Rs
Sampling rate : 48.0 kHz
Frame rate : 31.250 FPS (1536 SPF)
Bit depth : 16 bits
Compression mode : Lossy
Stream size : 319 MiB (8%)
Title : [THAI AC3 FROM DVD MASTER]
Language : Thai
Service kind : Complete Main
Default : Yes
Forced : No

Text #1
ID : 4
Format : VobSub
Codec ID : S_VOBSUB
Codec ID/Info : Picture based subtitle format used on DVDs
Title : [SUB THAI 480P FROM DVD MASTER]
Language : Thai
Default : No
Forced : No

Text #2
ID : 5
Format : VobSub
Codec ID : S_VOBSUB
Codec ID/Info : Picture based subtitle format used on DVDs
Title : [SUB THAI 1080P FROM DVD MASTER] TH Angsana UPC
Language : Thai
Default : No
Forced : No

Text #3
ID : 6
Format : VobSub
Codec ID : S_VOBSUB
Codec ID/Info : Picture based subtitle format used on DVDs
Title : [SUB THAI 1080P FROM DVD MASTER] TH Angsana UPC UNDER
Language : Thai
Default : Yes
Forced : No

Text #4
ID : 7
Format : VobSub
Codec ID : S_VOBSUB
Codec ID/Info : Picture based subtitle format used on DVDs
Title : [SUB THAI 1080P FROM DVD MASTER] TH Sarabun
Language : Thai
Default : No
Forced : No

Text #5
ID : 8
Format : VobSub
Codec ID : S_VOBSUB
Codec ID/Info : Picture based subtitle format used on DVDs
Title : [SUB THAI 1080P FROM DVD MASTER] TH Sarabun UNDER
Language : Thai
Default : No
Forced : No

Text #6
ID : 9
Format : PGS
Codec ID : S_HDMV/PGS
Codec ID/Info : Picture based subtitle format used on BDs/HD-DVDs
Title : THAI PGS Angsana UPC
Language : Thai
Default : No
Forced : No

Text #7
ID : 10
Format : PGS
Codec ID : S_HDMV/PGS
Codec ID/Info : Picture based subtitle format used on BDs/HD-DVDs
Title : THAI PGS Angsana UPC UNDER
Language : Thai
Default : No
Forced : No

Text #8
ID : 11
Format : PGS
Codec ID : S_HDMV/PGS
Codec ID/Info : Picture based subtitle format used on BDs/HD-DVDs
Title : THAI PGS TH Sarabun
Language : Thai
Default : No
Forced : No

Text #9
ID : 12
Format : PGS
Codec ID : S_HDMV/PGS
Codec ID/Info : Picture based subtitle format used on BDs/HD-DVDs
Title : THAI PGS TH Sarabun UNDER
Language : Thai
Default : No
Forced : No

Text #10
ID : 13
Format : PGS
Codec ID : S_HDMV/PGS
Codec ID/Info : Picture based subtitle format used on BDs/HD-DVDs
Title : [SUB ENG PGS FROM BLU-RAY]
Language : English
Default : No
Forced : No

DOWNLOAD


PART01 |||| PART02 |||| PART03 |||| PART04 |||| PART05

PART01 |||| PART02 |||| PART03 |||| PART04 |||| PART05

PART01 |||| PART02 |||| PART03 |||| PART04 |||| PART05

PART01 |||| PART02 |||| PART03 |||| PART04 |||| PART05


5 Comments
  1. Tubtimto
    Tubtimto says

    ใส่รหัสยังไงครับ กดไม่ผ่านเรย

    1. Admin
      Admin says

      รหัสผ่านอะไรหว่า ไม่มีรหัสผ่านฮ๊ะ

  2. Monkey king JTTW
    Monkey king JTTW says

    แอดคับ ไฟล์เสีย น่าจะตั้งแต่part 1 ทุกเว็บเลย

    1. Admin
      Admin says

      เสียยังไงฮ๊ะ แยกไฟล์ไม่ได้แนะนำให้ใช้ winrar เวอร์ชั่นล่าสุดในการแยกไฟล์ฮ๊ะ

  3. Monkey king JTTW
    Monkey king JTTW says

    ได้แล้วคับ ขอบคุณ ผมพลาดเองแอด ><“

Leave A Reply

Your email address will not be published.