[MINI Super-HQ] Krasue: Inhuman Kiss (2019) แสงกระสือ [1080p] [พากย์ไทย 5.1] [บรรยายไทย + อังกฤษ] [เสียงไทย + ซับไทย] [OPENLOAD]

1

Krasue: Inhuman Kiss (2019) แสงกระสือ

โหลดหนัง Krasue: Inhuman Kiss (2019) แสงกระสือ

Krasue: Inhuman Kiss (2019) Drama, Horror, Romance | 14 March 2019 (Thailand) Summary: In a far-away village, lived an innocent teenage girl, "Sai" who later discovered herself inheriting the curse of "Krasue". At night, her head would detach from her body and hunts for flesh... See full summary »
Countries: ThailandLanguages: Thai

เรื่องย่อ Krasue: Inhuman Kiss (2019) แสงกระสือ

เรื่องราวของรักต้องห้ามกับชะตากรรมที่ต้องเลือก เป็นความสัมพันธ์ระหว่างเพื่อนรักสามคน สาย, น้อย และ เจิด ซึ่งทั้ง 3 คนต่างสัญญากันไว้ว่า หลังสิ้นสุดสงครามจะไปเที่ยวพระนครด้วยกัน แต่แล้วก็เกิดเหตุการณ์ไม่คาดคิดขึ้นในหมู่บ้านของพวกเขา เป็นความน่ากลัวที่มาพร้อมกับความลึกลับ แสงประหลาด ที่ชาวบ้านลงความเห็นกันว่า เป็น แสงกระสือ ดวงไฟลึกลับที่มาพร้อมกับการไล่ล่า ของกลุ่มคนที่ไม่ได้รับเชิญ ความลับต่าง ๆ ค่อย ๆ ถูกเปิดเผยขึ้นทีละเรื่อง ๆ ความจริงที่ต้องแลกด้วยความหวัง ชีวิต และ ความตาย…!!!

Complete name : [MINI Super-HQ]_Krasue.Inhuman.Kiss.2019.1080p.NF.WEBRip.AC3.x264.One2loadup.com.mkv
Format : Matroska
Format version : Version 4
File size : 6.51 GiB
Duration : 2 h 1 min
Overall bit rate mode : Variable
Overall bit rate : 7 642 kb/s
Movie name : [MINI Super-HQ]_Krasue.Inhuman.Kiss.2019.1080p.NF.WEBRip.AC3.x264.One2loadup.com
Encoded date : UTC 2019-07-03 08:44:55
Writing application : mkvmerge v8.3.0 (‘Over the Horizon’) 64bit
Writing library : libebml v1.3.1 + libmatroska v1.4.2
Cover : Yes
Attachments : small_cover_land.jpg / cover.jpg / cover_land.jpg / small_cover.jpg

Video
ID : 1
Format : AVC
Format/Info : Advanced Video Codec
Format profile : [email protected]
Format settings : CABAC / 4 Ref Frames
Format settings, CABAC : Yes
Format settings, ReFrames : 4 frames
Codec ID : V_MPEG4/ISO/AVC
Duration : 2 h 1 min
Bit rate mode : Variable
Bit rate : 6 960 kb/s
Maximum bit rate : 20.0 Mb/s
Width : 1 920 pixels
Height : 1 080 pixels
Display aspect ratio : 16:9
Frame rate mode : Constant
Frame rate : 24.000 FPS
Color space : YUV
Chroma subsampling : 4:2:0
Bit depth : 8 bits
Scan type : Progressive
Bits/(Pixel*Frame) : 0.140
Stream size : 5.93 GiB (91%)
Title : [MINI Super-HQ]_Krasue.Inhuman.Kiss.2019.1080p.NF.WEBRip.AC3.x264.One2loadup.com
Writing library : x264 core 148 r2715 7e75228
Encoding settings : cabac=1 / ref=4 / deblock=1:0:0 / analyse=0x3:0x111 / me=umh / subme=10 / psy=1 / psy_rd=1.00:0.00 / mixed_ref=1 / me_range=120 / chroma_me=1 / trellis=2 / 8x8dct=1 / cqm=0 / deadzone=21,11 / fast_pskip=1 / chroma_qp_offset=-2 / threads=8 / lookahead_threads=2 / sliced_threads=0 / nr=0 / decimate=1 / interlaced=0 / bluray_compat=0 / stitchable=1 / constrained_intra=0 / bframes=16 / b_pyramid=2 / b_adapt=2 / b_bias=0 / direct=3 / weightb=1 / open_gop=0 / weightp=2 / keyint=240 / keyint_min=121 / scenecut=0 / intra_refresh=0 / rc_lookahead=240 / rc=crf / mbtree=1 / crf=16.0 / qcomp=0.50 / qpmin=6 / qpmax=51 / qpstep=4 / vbv_maxrate=20000 / vbv_bufsize=25000 / crf_max=0.0 / nal_hrd=vbr / filler=0 / ip_ratio=1.40 / aq=1:0.80
Default : Yes
Forced : No

Audio
ID : 2
Format : E-AC-3
Format/Info : Enhanced AC-3
Commercial name : Dolby Digital Plus
Codec ID : A_EAC3
Duration : 2 h 1 min
Bit rate mode : Constant
Bit rate : 640 kb/s
Channel(s) : 6 channels
Channel layout : L R C LFE Ls Rs
Sampling rate : 48.0 kHz
Frame rate : 31.250 FPS (1536 SPF)
Compression mode : Lossy
Stream size : 558 MiB (8%)
Title : Thai 5.1 [Original]
Language : Thai
Service kind : Complete Main
Default : Yes
Forced : No

Text #1
ID : 3
Format : UTF-8
Codec ID : S_TEXT/UTF8
Codec ID/Info : UTF-8 Plain Text
Duration : 1 h 55 min
Bit rate : 46 b/s
Count of elements : 673
Stream size : 39.0 KiB (0%)
Title : Thai
Language : Thai
Default : No
Forced : No

Text #2
ID : 4
Format : VobSub
Muxing mode : zlib
Codec ID : S_VOBSUB
Codec ID/Info : Picture based subtitle format used on DVDs
Duration : 1 h 55 min
Bit rate : 698 b/s
Count of elements : 672
Stream size : 592 KiB (0%)
Title : Thai 480P
Language : Thai
Default : No
Forced : No

Text #3
ID : 5
Format : VobSub
Muxing mode : zlib
Codec ID : S_VOBSUB
Codec ID/Info : Picture based subtitle format used on DVDs
Duration : 1 h 55 min
Bit rate : 1 236 b/s
Count of elements : 672
Stream size : 1.02 MiB (0%)
Title : Thai 720P
Language : Thai
Default : No
Forced : No

Text #4
ID : 6
Format : VobSub
Muxing mode : zlib
Codec ID : S_VOBSUB
Codec ID/Info : Picture based subtitle format used on DVDs
Duration : 1 h 55 min
Bit rate : 2 013 b/s
Count of elements : 672
Stream size : 1.67 MiB (0%)
Title : Thai 1080P
Language : Thai
Default : Yes
Forced : No

Text #5
ID : 7
Format : VobSub
Muxing mode : zlib
Codec ID : S_VOBSUB
Codec ID/Info : Picture based subtitle format used on DVDs
Duration : 1 h 55 min
Bit rate : 2 497 b/s
Count of elements : 672
Stream size : 2.07 MiB (0%)
Title : Thai 1080P BIG
Language : Thai
Default : No
Forced : No

Text #6
ID : 8
Format : VobSub
Muxing mode : zlib
Codec ID : S_VOBSUB
Codec ID/Info : Picture based subtitle format used on DVDs
Duration : 1 h 55 min
Bit rate : 2 012 b/s
Count of elements : 672
Stream size : 1.67 MiB (0%)
Title : Thai 1080P OUT
Language : Thai
Default : No
Forced : No

Text #7
ID : 9
Format : VobSub
Muxing mode : zlib
Codec ID : S_VOBSUB
Codec ID/Info : Picture based subtitle format used on DVDs
Duration : 1 h 55 min
Bit rate : 2 497 b/s
Count of elements : 672
Stream size : 2.07 MiB (0%)
Title : Thai 1080P BIG[OUT]
Language : Thai
Default : No
Forced : No

Text #8
ID : 10
Format : VobSub
Muxing mode : zlib
Codec ID : S_VOBSUB
Codec ID/Info : Picture based subtitle format used on DVDs
Duration : 1 h 55 min
Bit rate : 2 014 b/s
Count of elements : 672
Stream size : 1.67 MiB (0%)
Title : Thai 1080P Yellow
Language : Thai
Default : No
Forced : No

Text #9
ID : 11
Format : UTF-8
Codec ID : S_TEXT/UTF8
Codec ID/Info : UTF-8 Plain Text
Duration : 1 h 56 min
Bit rate : 24 b/s
Count of elements : 913
Stream size : 20.7 KiB (0%)
Title : English
Language : English
Default : No
Forced : No

Text #10
ID : 12
Format : PGS
Muxing mode : zlib
Codec ID : S_HDMV/PGS
Codec ID/Info : Picture based subtitle format used on BDs/HD-DVDs
Duration : 1 h 55 min
Bit rate : 6 893 b/s
Count of elements : 1346
Stream size : 5.71 MiB (0%)
Title : Thai PGS
Language : Thai
Default : No
Forced : No

Text #11
ID : 13
Format : PGS
Muxing mode : zlib
Codec ID : S_HDMV/PGS
Codec ID/Info : Picture based subtitle format used on BDs/HD-DVDs
Duration : 1 h 55 min
Bit rate : 8 685 b/s
Count of elements : 1346
Stream size : 7.19 MiB (0%)
Title : Thai PGS BIG
Language : Thai
Default : No
Forced : No

Text #12
ID : 14
Format : PGS
Muxing mode : zlib
Codec ID : S_HDMV/PGS
Codec ID/Info : Picture based subtitle format used on BDs/HD-DVDs
Duration : 1 h 55 min
Bit rate : 6 894 b/s
Count of elements : 1346
Stream size : 5.71 MiB (0%)
Title : Thai OUT
Language : Thai
Default : No
Forced : No

Text #13
ID : 15
Format : PGS
Muxing mode : zlib
Codec ID : S_HDMV/PGS
Codec ID/Info : Picture based subtitle format used on BDs/HD-DVDs
Duration : 1 h 55 min
Bit rate : 6 945 b/s
Count of elements : 1346
Stream size : 5.75 MiB (0%)
Title : Thai PGS Yellow
Language : Thai
Default : No
Forced : No

DOWNLOAD


PART01 |||| PART02 |||| PART03 |||| PART04 |||| PART05 |||| PART06 |||| PART07

PART01 |||| PART02 |||| PART03 |||| PART04 |||| PART05 |||| PART06 |||| PART07

PART01 |||| PART02 |||| PART03 |||| PART04 |||| PART05 |||| PART06 |||| PART07

PART01 |||| PART02 |||| PART03 |||| PART04 |||| PART05 |||| PART06 |||| PART07


1 Comment
  1. ืnoknoi says

    ขอบคุณนะคะที่หาหนังดี ๆ มาให้ดูค่ะ

Leave A Reply

Your email address will not be published.

%d bloggers like this: