[MINI Super-HQ] Jiu Jitsu (2020) โคตรคนชนเอเลี่ยน [1080p] [พากย์ไทย 2.0 + เสียงอังกฤษ DTS] [บรรยายไทย + อังกฤษ] [เสียงไทยมาสเตอร์ + ซับไทย] [USERLOAD]

0

โหลดหนัง Jiu Jitsu (2020) โคตรคนชนเอเลี่ยน

Jiu Jitsu (2020) 102min | Action, Sci-Fi, Thriller | November 20, 2020 (United States) Summary: Every six years, an ancient order of jiu-jitsu fighters joins forces to battle a vicious race of alien invaders. But when a celebrated war hero goes down in defeat, the fate of the planet an... Read all
Countries: United StatesLanguages: English

เรื่องย่อ Jiu Jitsu (2020) โคตรคนชนเอเลี่ยน

เจค บาร์นส์ (อัลเลน มูสซี่) ชายหนุ่มคนหนึ่งได้รับบาดเจ็บพร้อมสูญเสียความทรงจำไป ก่อนได้รับความช่วยเหลือจาก ไวลี่ (นิโคลัส เคจ) และเหล่าภาคีนักสู้ยิวยิตสูเก่าแก่ ซึ่งดูเหมือนว่าชะตากรรมของเขาจะเกี่ยวโยงอยู่กับศึกการต่อสู้ระหว่างมนุษย์กับ แบร็กซ์ (ไรอัน ทาร์แรน) ผู้รุกรานจากต่างดาวที่แข็งแกร่งและมาพร้อมเทคโนโลยีอาวุธสุดล้ำ เหล่าโคตรคนมหาประลัยจึงต้องผนึกกำลังชนศัตรูจากต่างดาวด้วยวิชาศิลปะการต่อสู้ โดยมีชะตากรรมของโลกเป็นเดิมพัน!!!

Complete name : [MINI Super-HQ]_Jiu.Jitsu.2020.1080p.BrRip.DTS.x264.THM.One2loadup.com.mkv
Format : Matroska
Format version : Version 4
File size : 3.78 GiB
Duration : 1 h 42 min
Overall bit rate : 5 297 kb/s
Movie name : [MINI Super-HQ]_Jiu.Jitsu.2020.1080p.BrRip.DTS.x264.THM.One2loadup.com
Encoded date : UTC 2021-08-06 22:20:38
Writing application : mkvmerge v9.8.0 (‘Kuglblids’) 64bit
Writing library : libebml v1.3.4 + libmatroska v1.4.5

Video
ID : 1
Format : AVC
Format/Info : Advanced Video Codec
Format profile : [email protected]
Format settings : CABAC / 5 Ref Frames
Format settings, CABAC : Yes
Format settings, Reference : 5 frames
Codec ID : V_MPEG4/ISO/AVC
Duration : 1 h 42 min
Bit rate : 4 100 kb/s
Width : 1 920 pixels
Height : 808 pixels
Display aspect ratio : 2.40:1
Frame rate mode : Constant
Frame rate : 23.976 (24000/1001) FPS
Color space : YUV
Chroma subsampling : 4:2:0
Bit depth : 8 bits
Scan type : Progressive
Bits/(Pixel*Frame) : 0.110
Stream size : 2.92 GiB (77%)
Title : [MINI Super-HQ]_Jiu.Jitsu.2020.1080p.BrRip.DTS.x264.THM.One2loadup.com
Writing library : x264 core 157 r2935 545de2f
Encoding settings : cabac=1 / ref=5 / deblock=1:0:0 / analyse=0x1:0x131 / me=tesa / subme=11 / psy=1 / psy_rd=1.00:0.00 / mixed_ref=1 / me_range=24 / chroma_me=1 / trellis=2 / 8x8dct=0 / cqm=0 / deadzone=21,11 / fast_pskip=0 / chroma_qp_offset=-2 / threads=12 / lookahead_threads=3 / sliced_threads=0 / nr=0 / decimate=1 / interlaced=0 / bluray_compat=0 / constrained_intra=0 / bframes=16 / b_pyramid=2 / b_adapt=2 / b_bias=0 / direct=3 / weightb=1 / open_gop=0 / weightp=2 / keyint=240 / keyint_min=24 / scenecut=40 / intra_refresh=0 / rc_lookahead=60 / rc=2pass / mbtree=1 / bitrate=4100 / ratetol=1.0 / qcomp=0.60 / qpmin=0 / qpmax=69 / qpstep=4 / cplxblur=20.0 / qblur=0.5 / vbv_maxrate=50000 / vbv_bufsize=62500 / nal_hrd=none / filler=0 / ip_ratio=1.40 / aq=1:1.00
Language : English
Default : Yes
Forced : No
Color range : Limited
Color primaries : BT.709
Transfer characteristics : BT.709
Matrix coefficients : BT.709

Audio #1
ID : 2
Format : AC-3
Format/Info : Audio Coding 3
Commercial name : Dolby Digital
Codec ID : A_AC3
Duration : 1 h 42 min
Bit rate mode : Constant
Bit rate : 384 kb/s
Channel(s) : 2 channels
Channel layout : L R
Sampling rate : 48.0 kHz
Frame rate : 31.250 FPS (1536 SPF)
Compression mode : Lossy
Stream size : 280 MiB (7%)
Title : Thai Master
Language : Thai
Service kind : Complete Main
Default : Yes
Forced : Yes

Audio #2
ID : 3
Format : DTS
Format/Info : Digital Theater Systems
Codec ID : A_DTS
Duration : 1 h 42 min
Bit rate mode : Constant
Bit rate : 755 kb/s
Channel(s) : 6 channels
Channel layout : C L R Ls Rs LFE
Sampling rate : 48.0 kHz
Frame rate : 93.750 FPS (512 SPF)
Bit depth : 24 bits
Compression mode : Lossy
Stream size : 551 MiB (14%)
Title : English DTS-5.1
Language : Thai
Default : No
Forced : No

Text #1
ID : 4
Format : PGS
Codec ID : S_HDMV/PGS
Codec ID/Info : Picture based subtitle format used on BDs/HD-DVDs
Duration : 1 h 38 min
Bit rate : 16.4 kb/s
Count of elements : 1288
Stream size : 11.5 MiB (0%)
Title : Thai 1080p PGS
Language : Thai
Default : Yes
Forced : Yes

Text #2
ID : 5
Format : VobSub
Codec ID : S_VOBSUB
Codec ID/Info : Picture based subtitle format used on DVDs
Duration : 1 h 38 min
Bit rate : 3 830 b/s
Count of elements : 644
Stream size : 2.69 MiB (0%)
Title : Thai 1080p
Language : Thai
Default : No
Forced : No

Text #3
ID : 6
Format : PGS
Codec ID : S_HDMV/PGS
Codec ID/Info : Picture based subtitle format used on BDs/HD-DVDs
Duration : 1 h 38 min
Bit rate : 16.1 kb/s
Count of elements : 1288
Stream size : 11.3 MiB (0%)
Title : Thai 1080p Out PGS
Language : Thai
Default : No
Forced : No

Text #4
ID : 7
Format : VobSub
Codec ID : S_VOBSUB
Codec ID/Info : Picture based subtitle format used on DVDs
Duration : 1 h 38 min
Bit rate : 3 766 b/s
Count of elements : 644
Stream size : 2.65 MiB (0%)
Title : Thai 1080p Out
Language : Thai
Default : No
Forced : No

Text #5
ID : 8
Format : VobSub
Codec ID : S_VOBSUB
Codec ID/Info : Picture based subtitle format used on DVDs
Duration : 1 h 38 min
Bit rate : 5 247 b/s
Count of elements : 644
Stream size : 3.69 MiB (0%)
Title : Thai 1080p Big [Yellow]
Language : Thai
Default : No
Forced : No

Text #6
ID : 9
Format : PGS
Codec ID : S_HDMV/PGS
Codec ID/Info : Picture based subtitle format used on BDs/HD-DVDs
Duration : 1 h 36 min
Bit rate : 13.8 kb/s
Count of elements : 1667
Stream size : 9.49 MiB (0%)
Title : English PGS
Language : English
Default : No
Forced : No

DOWNLOAD


PART01 |||| PART02 |||| PART03 |||| PART04

PART01 |||| PART02 |||| PART03 |||| PART04

PART01 |||| PART02 |||| PART03 |||| PART04

PART01 |||| PART02 |||| PART03 |||| PART04

PART01 |||| PART02 |||| PART03 |||| PART04


Leave A Reply

อีเมล์ของคุณจะไม่แสดงให้เห็น Your email address will not be published.

%d bloggers like this: