[MINI Super-HQ] Jagame Thandhiram (2021) โลกนี้สีขาวดำ [1080p] [NETFLIX] [พากย์ไทย 5.1 + เสียงทมิฬ 5.1] [บรรยายไทย + อังกฤษ] [เสียงไทย + ซับไทย] [DOSYAUPLOAD]

0

โหลดหนัง Jagame Thandhiram (2021) โลกนี้สีขาวดำ

Jagame Thandhiram (2021) 157min | Action, Comedy, Crime | 18 June 2021 (USA)
Summary: A nomadic gangster finds himself caught between good and evil in a fight for a place to call home. Starring Dhanush, Aishwarya Lekshmi and James Cosmo.
Countries: UK, IndiaLanguages: Tamil, Telugu

เรื่องย่อ Jagame Thandhiram (2021) โลกนี้สีขาวดำ

เมื่อนักเลงแก๊งอันธพาลหัวไวผู้ไร้กังวลถูกทาบทามให้ มาช่วยเจ้าพ่อแก๊งอาชญากรรมต่างแดนโค่นแก๊งคู่อริ เขากลับเกิดความรู้สึกขัดแย้งทางศีลธรรมขึ้นในใจ

Complete name : [MINI Super-HQ]_Jagame.Thandhiram.2021.1080p.NF.WEB-DL.EAC3.x264.One2loadup.com.mkv
Format : Matroska
Format version : Version 4
File size : 5.96 GiB
Duration : 2 h 38 min
Overall bit rate : 5 379 kb/s
Movie name : [MINI Super-HQ]_Jagame.Thandhiram.2021.1080p.NF.WEB-DL.EAC3.x264.One2loadup.com
Encoded date : UTC 2021-06-19 14:47:08
Writing application : mkvmerge v58.0.0 (‘Supper’s Ready’) 64-bit
Writing library : libebml v1.4.2 + libmatroska v1.6.4

Video
ID : 1
Format : AVC
Format/Info : Advanced Video Codec
Format profile : [email protected]
Format settings : CABAC / 3 Ref Frames
Format settings, CABAC : Yes
Format settings, Reference : 3 frames
Codec ID : V_MPEG4/ISO/AVC
Duration : 2 h 38 min
Bit rate : 3 897 kb/s
Width : 1 920 pixels
Height : 800 pixels
Display aspect ratio : 2.40:1
Frame rate mode : Constant
Frame rate : 24.000 FPS
Color space : YUV
Chroma subsampling : 4:2:0
Bit depth : 8 bits
Scan type : Progressive
Bits/(Pixel*Frame) : 0.106
Stream size : 4.32 GiB (72%)
Title : [MINI Super-HQ]_Jagame.Thandhiram.2021.1080p.NF.WEB-DL.EAC3.x264.One2loadup.com
Language : Tamil
Default : Yes
Forced : No

Audio #1
ID : 2
Format : E-AC-3 JOC
Format/Info : Enhanced AC-3 with Joint Object Coding
Commercial name : Dolby Digital Plus with Dolby Atmos
Codec ID : A_EAC3
Duration : 2 h 38 min
Bit rate mode : Constant
Bit rate : 768 kb/s
Channel(s) : 6 channels
Channel layout : L R C LFE Ls Rs
Sampling rate : 48.0 kHz
Frame rate : 31.250 FPS (1536 SPF)
Compression mode : Lossy
Stream size : 872 MiB (14%)
Title : E-AC3 Atmos Tamil
Language : Tamil
Service kind : Complete Main
Default : Yes
Forced : No
Complexity index : 16
Number of dynamic objects : 15
Bed channel count : 1 channel
Bed channel configuration : LFE

Audio #2
ID : 3
Format : E-AC-3
Format/Info : Enhanced AC-3
Commercial name : Dolby Digital Plus
Codec ID : A_EAC3
Duration : 2 h 38 min
Bit rate mode : Constant
Bit rate : 640 kb/s
Channel(s) : 6 channels
Channel layout : L R C LFE Ls Rs
Sampling rate : 48.0 kHz
Frame rate : 31.250 FPS (1536 SPF)
Compression mode : Lossy
Stream size : 726 MiB (12%)
Title : E-AC3 Thai
Language : Thai
Service kind : Complete Main
Default : No
Forced : No

Text #1
ID : 4
Format : VobSub
Muxing mode : zlib
Codec ID : S_VOBSUB
Codec ID/Info : Picture based subtitle format used on DVDs
Duration : 2 h 37 min
Bit rate : 14.0 kb/s
Count of elements : 2237
Stream size : 15.7 MiB (0%)
Title : Sub Thai 1080p
Language : Thai
Default : No
Forced : No

Text #2
ID : 5
Format : UTF-8
Codec ID : S_TEXT/UTF8
Codec ID/Info : UTF-8 Plain Text
Duration : 2 h 37 min
Bit rate : 143 b/s
Count of elements : 2237
Stream size : 165 KiB (0%)
Title : Sub Thai SRT
Language : Thai
Default : No
Forced : No

Text #3
ID : 6
Format : PGS
Muxing mode : zlib
Codec ID : S_HDMV/PGS
Codec ID/Info : Picture based subtitle format used on BDs/HD-DVDs
Duration : 2 h 37 min
Bit rate : 39.0 kb/s
Count of elements : 4474
Stream size : 43.8 MiB (1%)
Title : Sub Thai PGS
Language : Thai
Default : No
Forced : No

Text #4
ID : 7
Format : PGS
Muxing mode : zlib
Codec ID : S_HDMV/PGS
Codec ID/Info : Picture based subtitle format used on BDs/HD-DVDs
Duration : 2 h 37 min
Bit rate : 67.8 kb/s
Count of elements : 4474
Stream size : 76.2 MiB (1%)
Title : Sub Thai PGS NETFLIX
Language : Thai
Default : Yes
Forced : No

Text #5
ID : 8
Format : UTF-8
Codec ID : S_TEXT/UTF8
Codec ID/Info : UTF-8 Plain Text
Duration : 2 h 36 min
Bit rate : 62 b/s
Count of elements : 2212
Stream size : 72.1 KiB (0%)
Title : Sub English SRT
Language : English
Default : No
Forced : No

Cornfile ลบไฟล์ทิ้งทั้งหมดแล้ว ยกเลิกอัพCornfile has deleted all files. cancel upload


PART01 |||| PART02 |||| PART03 |||| PART04 |||| PART05 |||| PART06 |||| PART07

PART01 |||| PART02 |||| PART03 |||| PART04 |||| PART05 |||| PART06 |||| PART07

PART01 |||| PART02 |||| PART03 |||| PART04 |||| PART05 |||| PART06 |||| PART07

PART01 |||| PART02 |||| PART03 |||| PART04 |||| PART05 |||| PART06 |||| PART07

PART01 |||| PART02 |||| PART03 |||| PART04 |||| PART05 |||| PART06 |||| PART07


Leave A Reply

อีเมล์ของคุณจะไม่แสดงให้เห็น Your email address will not be published.

%d bloggers like this: