[MINI Super-HQ] Jade Dynasty (2019) กระบี่เทพสังหาร [1080p] [พากย์ไทย 5.1 + เสียงจีน DTS] [บรรยายไทย + อังกฤษ] [เสียงไทย + ซับไทย] [PANDAFILE]

0

โหลดหนัง Jade Dynasty (2019) กระบี่เทพสังหาร

Zhu xian I (2019) 1h 41min | Fantasy, Romance | 12 September 2019 (China) Summary: After the massacre of his village, Zhang Xiaofan is taken in by the Qing Yun Sect where he begins his journey of cultivation. When he finds out the truth behind the deaths of his parents, ... See full summary »
Countries: ChinaLanguages: Mandarin

เรื่องย่อ Jade Dynasty (2019) กระบี่เทพสังหาร

ภาพยนตร์ฟอร์มยักษ์ดัดแปลงจากนิยายขายดีจากจีน “จูเซียน กระบี่เทพสังหาร” หรือ “Jade Dynasty” หรืออีกชื่อ “The Attack of Heaven” นวนิยายชื่อดัง ที่เขียนโดย “เสี่ยวติง” (Xiao Ding) มียอดขายบนอินเตอร์เน็ตอันดับหนึ่ง ในปี 2005 และมียอดขายติด TOP5 ในปี 2006 ก่อนจะถูกนำมาสร้างเป็นซีรีส์และเกมส์ออนไลน์ จนล่าสุดกับฉบับภาพยนตร์ที่ Golden A Entertainmnet ได้นำเข้ามาฉายในประเทศไทย

เรื่องราวของเด็กชายกำพร้าที่รอดตายจากโศกนาฏกรรมจาก หมู่บ้านของเขา แม้พ่อแม่จะถูกฆ่าตายหมด แต่เขาได้รับความช่วยเหลือและได้พบกับอาจารย์สอนและฝึกฝนวิชาจากสำนักชิงหยุน เมื่อความลับของการตายของพ่อแม่เขาปรากฏ เขาจึงออกตามล่าศัตรูเพื่อแก้แค้นให้กับพ่อแม่ของเขาที่จากไป โดยภาพยนตร์ Jade Dynasty กระบี่เทพสังหารเปิดตัวด้วยรายได้ถล่มบ็อกออฟฟิตในประเทศจีนไปกว่า 300 ล้านหยวนภายในสัปดาห์แรกนำแสดงโดยพระเอกสุดฮอตติดชาร์ตยอดนิยมอันดับหนึ่งทุก โพล ‘เซียวจ้าน’ ที่มีแฟนคลับมากมาย เจ้าของสถิติบัตรแฟนมีทขายหมดในหนึ่งนาทีและสาวๆอย่าง หลี่ซิ่น, เมิ่งเหม่ยฉี และ ถังยี่ซิน รวมทั้งดารามากมายอีกคับคั่ง!!!

Complete name : [MINI Super-HQ]_Jade.Dynasty.2019.1080p.BluRay.DTS.x264.One2loadup.com.mkv
Format : Matroska
Format version : Version 4
File size : 4.28 GiB
Duration : 1 h 41 min
Overall bit rate : 6 067 kb/s
Movie name : [MINI Super-HQ]_Jade.Dynasty.2019.1080p.BluRay.DTS.x264.One2loadup.com
Encoded date : UTC 2020-05-13 12:57:27
Writing application : mkvmerge v9.8.0 (‘Kuglblids’) 64bit
Writing library : libebml v1.3.4 + libmatroska v1.4.5

Video
ID : 1
Format : AVC
Format/Info : Advanced Video Codec
Format profile : [email protected]
Format settings : CABAC / 4 Ref Frames
Format settings, CABAC : Yes
Format settings, ReFrames : 4 frames
Codec ID : V_MPEG4/ISO/AVC
Duration : 1 h 41 min
Bit rate : 4 224 kb/s
Width : 1 920 pixels
Height : 804 pixels
Display aspect ratio : 2.40:1
Frame rate mode : Constant
Frame rate : 24.000 FPS
Color space : YUV
Chroma subsampling : 4:2:0
Bit depth : 8 bits
Scan type : Progressive
Bits/(Pixel*Frame) : 0.114
Stream size : 2.98 GiB (70%)
Title : [MINI Super-HQ]_Jade.Dynasty.2019.1080p.BluRay.DTS.x264.One2loadup.com
Writing library : x264 core 157 r2935 545de2f
Encoding settings : cabac=1 / ref=3 / deblock=1:0:0 / analyse=0x3:0x133 / me=umh / subme=11 / psy=1 / psy_rd=1.00:0.00 / mixed_ref=1 / me_range=48 / chroma_me=1 / trellis=2 / 8x8dct=1 / cqm=0 / deadzone=21,11 / fast_pskip=1 / chroma_qp_offset=-2 / threads=12 / lookahead_threads=1 / sliced_threads=0 / nr=0 / decimate=1 / interlaced=0 / bluray_compat=0 / constrained_intra=0 / bframes=3 / b_pyramid=2 / b_adapt=1 / b_bias=0 / direct=3 / weightb=1 / open_gop=0 / weightp=2 / keyint=240 / keyint_min=24 / scenecut=40 / intra_refresh=0 / rc_lookahead=60 / rc=2pass / mbtree=1 / bitrate=4224 / ratetol=1.0 / qcomp=0.60 / qpmin=0 / qpmax=69 / qpstep=4 / cplxblur=20.0 / qblur=0.5 / vbv_maxrate=25000 / vbv_bufsize=31250 / nal_hrd=none / filler=0 / ip_ratio=1.40 / aq=1:1.00
Language : Chinese
Default : Yes
Forced : Yes
Color range : Limited
Color primaries : BT.709
Transfer characteristics : BT.709
Matrix coefficients : BT.709

Audio #1
ID : 2
Format : AC-3
Format/Info : Audio Coding 3
Commercial name : Dolby Digital
Codec ID : A_AC3
Duration : 1 h 40 min
Bit rate mode : Constant
Bit rate : 448 kb/s
Channel(s) : 6 channels
Channel layout : L R C LFE Ls Rs
Sampling rate : 48.0 kHz
Frame rate : 31.250 FPS (1536 SPF)
Bit depth : 16 bits
Compression mode : Lossy
Stream size : 324 MiB (7%)
Title : Thai DVD Master
Language : Thai
Service kind : Complete Main
Default : Yes
Forced : Yes

Audio #2
ID : 3
Format : DTS
Format/Info : Digital Theater Systems
Codec ID : A_DTS
Duration : 1 h 41 min
Bit rate mode : Constant
Bit rate : 768 kb/s
Channel(s) : 6 channels
Channel layout : C L R Ls Rs LFE
Sampling rate : 48.0 kHz
Frame rate : 93.750 FPS (512 SPF)
Bit depth : 16 bits
Compression mode : Lossy
Stream size : 555 MiB (13%)
Title : Mandarin DTS
Language : Chinese
Default : No
Forced : No

Audio #3
ID : 4
Format : AC-3
Format/Info : Audio Coding 3
Commercial name : Dolby Digital
Codec ID : A_AC3
Duration : 1 h 41 min
Bit rate mode : Constant
Bit rate : 448 kb/s
Channel(s) : 6 channels
Channel layout : L R C LFE Ls Rs
Sampling rate : 48.0 kHz
Frame rate : 31.250 FPS (1536 SPF)
Bit depth : 16 bits
Compression mode : Lossy
Stream size : 324 MiB (7%)
Title : Mandarin 5.1
Language : Chinese
Service kind : Complete Main
Default : No
Forced : No

Text #1
ID : 5
Format : VobSub
Codec ID : S_VOBSUB
Codec ID/Info : Picture based subtitle format used on DVDs
Duration : 1 h 35 min
Bit rate : 3 771 b/s
Count of elements : 1267
Stream size : 2.59 MiB (0%)
Title : Thai 720p
Language : Thai
Default : No
Forced : No

Text #2
ID : 6
Format : VobSub
Codec ID : S_VOBSUB
Codec ID/Info : Picture based subtitle format used on DVDs
Duration : 1 h 35 min
Bit rate : 6 896 b/s
Count of elements : 1267
Stream size : 4.73 MiB (0%)
Title : Thai 1080p
Language : Thai
Default : Yes
Forced : Yes

Text #3
ID : 7
Format : VobSub
Codec ID : S_VOBSUB
Codec ID/Info : Picture based subtitle format used on DVDs
Duration : 1 h 35 min
Bit rate : 6 887 b/s
Count of elements : 1267
Stream size : 4.72 MiB (0%)
Title : Thai 1080p Yellow
Language : Thai
Default : No
Forced : No

Text #4
ID : 8
Format : VobSub
Codec ID : S_VOBSUB
Codec ID/Info : Picture based subtitle format used on DVDs
Duration : 1 h 35 min
Bit rate : 9 481 b/s
Count of elements : 1267
Stream size : 6.50 MiB (0%)
Title : Thai 1080p Big
Language : Thai
Default : No
Forced : No

Text #5
ID : 9
Format : VobSub
Codec ID : S_VOBSUB
Codec ID/Info : Picture based subtitle format used on DVDs
Duration : 1 h 35 min
Bit rate : 6 516 b/s
Count of elements : 1267
Stream size : 4.47 MiB (0%)
Title : Thai 1080p Out
Language : Thai
Default : No
Forced : No

Text #6
ID : 10
Format : PGS
Codec ID : S_HDMV/PGS
Codec ID/Info : Picture based subtitle format used on BDs/HD-DVDs
Duration : 1 h 35 min
Bit rate : 30.1 kb/s
Count of elements : 2534
Stream size : 20.6 MiB (0%)
Title : Thai 1080p PGS
Language : Thai
Default : No
Forced : No

Text #7
ID : 11
Format : PGS
Codec ID : S_HDMV/PGS
Codec ID/Info : Picture based subtitle format used on BDs/HD-DVDs
Duration : 1 h 35 min
Bit rate : 30.1 kb/s
Count of elements : 2534
Stream size : 20.6 MiB (0%)
Title : Thai 1080p Yellow PGS
Default : No
Forced : No

Text #8
ID : 12
Format : PGS
Codec ID : S_HDMV/PGS
Codec ID/Info : Picture based subtitle format used on BDs/HD-DVDs
Duration : 1 h 35 min
Bit rate : 26.6 kb/s
Count of elements : 2534
Stream size : 18.3 MiB (0%)
Title : Thai 1080p Big PGS
Language : Thai
Default : No
Forced : No

Text #9
ID : 13
Format : PGS
Codec ID : S_HDMV/PGS
Codec ID/Info : Picture based subtitle format used on BDs/HD-DVDs
Duration : 1 h 35 min
Bit rate : 28.4 kb/s
Count of elements : 2534
Stream size : 19.4 MiB (0%)
Title : Thai 1080p Out PGS
Language : Thai
Default : No
Forced : No

Text #10
ID : 14
Format : PGS
Codec ID : S_HDMV/PGS
Codec ID/Info : Picture based subtitle format used on BDs/HD-DVDs
Duration : 1 h 35 min
Bit rate : 36.4 kb/s
Count of elements : 2257
Stream size : 24.9 MiB (1%)
Title : English
Language : English
Default : No
Forced : No

Menu
00:00:00.000 : en:Chapter 01
00:08:21.958 : en:Chapter 02
00:16:23.333 : en:Chapter 03
00:25:02.833 : en:Chapter 04
00:33:57.000 : en:Chapter 05
00:42:03.417 : en:Chapter 06
00:51:03.875 : en:Chapter 07
00:57:57.167 : en:Chapter 08
01:06:54.500 : en:Chapter 09
01:15:23.208 : en:Chapter 10
01:23:56.875 : en:Chapter 11
01:32:16.583 : en:Chapter 12

DOWNLOAD


PART01 |||| PART02 |||| PART03 |||| PART04 |||| PART05

PART01 |||| PART02 |||| PART03 |||| PART04 |||| PART05

PART01 |||| PART02 |||| PART03 |||| PART04 |||| PART05

PART01 |||| PART02 |||| PART03 |||| PART04 |||| PART05

PART01 |||| PART02 |||| PART03 |||| PART04 |||| PART05


Leave A Reply

Your email address will not be published.

%d bloggers like this: