[MINI Super-HQ] Jack Reacher (2012) ยอดคนสืบระห่ำ ภาค 1 [1080p] [พากย์ไทย 5.1 + เสียงอังกฤษ DTS] [บรรยายไทย + อังกฤษ] [เสียงไทย + ซับไทย] [PANDAFILE]

0

Jack Reacher (2012)

โหลดหนัง Jack Reacher (2012) ยอดคนสืบระห่ำ ภาค 1

Jack Reacher (2012) 2h 10min | Action, Crime, Thriller | 3 January 2013 (Germany) Summary: A homicide investigator digs deeper into a case involving a trained military sniper who shot five random victims.
Countries: USALanguages: English

เรื่องย่อ Jack Reacher (2012) ยอดคนสืบระห่ำ ภาค 1

ภาพยนตร์เรื่องนี้สร้างจากนิยายเรื่อง One Shot เขียนโดย ลี ไชลด์ (Lee Child) โดยเป็นเรื่องเกี่ยวกับคดีสุดลึกลับที่มีเหยื่อเสียชีวิต 5 ราย ด้วยการยิงเพียง 6 นัด แสดงให้เห็นว่าฆาตกรต้องเป็นมืออาชีพพอตัวอย่างแน่นอน และเบาะแสเดียวที่ตำรวจได้จากการสืบสวนผู้ต้องสงสัยก ็มีเพียงข้อความสั้น ๆ ที่เขียนว่า ‘กำจัด แจ็ค รีสเชอร์’ เท่านั้น ทำให้ชีวิตของแจ็คต้องตกอยู่ในอันตรายจากศัตรูที่คาดไม่ถึงทั้งนี้นอกจาก Jack Reacher จะได้ ทอม ครูซ (Tom Cruise) มาแสดงนำแล้ว ยังมีดารามากมาย อาทิ โรซามันด์ ไพค์ (Rosamund Pike), โรเบิร์ต ดูวัล (Robert Duvall), ริชาร์ด เจนกิ้นส์ (Richard Jenkins), เดวิด โอเยโลโว (David Oyelowo) และ เวอร์เนอร์ เฮอร์ซอค (Werner Herzog) ร่วมแสดงอีกด้วย โดยมี คริสโตเฟอร์ แม็คควอรี (Christopher McQuarrie) เป็นผู้กำกับ

Complete name : [MINI Super-HQ]_Jack.Reacher.2012.1080p.BrRip.DTS.x264.One2loadup.com.mkv
Format : Matroska
Format version : Version 4
File size : 4.37 GiB
Duration : 2 h 10 min
Overall bit rate : 4 802 kb/s
Movie name : [MINI Super-HQ]_Jack.Reacher.2012.1080p.BrRip.DTS.x264.One2loadup.com
Encoded date : UTC 2015-10-21 01:49:51
Writing application : mkvmerge v8.1.0 (‘Psychedelic Postcard’) 32bit
Writing library : libebml v1.3.1 + libmatroska v1.4.2
Cover : Yes
Attachments : cover_land.png / cover.png

Video
ID : 1
Format : AVC
Format/Info : Advanced Video Codec
Format profile : [email protected]
Format settings : CABAC / 4 Ref Frames
Format settings, CABAC : Yes
Format settings, ReFrames : 4 frames
Codec ID : V_MPEG4/ISO/AVC
Duration : 2 h 10 min
Bit rate : 3 306 kb/s
Width : 1 920 pixels
Height : 816 pixels
Display aspect ratio : 2.35:1
Frame rate mode : Constant
Frame rate : 23.976 FPS
Color space : YUV
Chroma subsampling : 4:2:0
Bit depth : 8 bits
Scan type : Progressive
Bits/(Pixel*Frame) : 0.088
Stream size : 3.02 GiB (69%)
Title : [MINI Super-HQ]_Jack.Reacher.2012.1080p.BrRip.DTS.x264.One2loadup.com
Writing library : x264 core 146 r2538 121396c
Encoding settings : cabac=1 / ref=4 / deblock=1:-3:-3 / analyse=0x3:0x113 / me=umh / subme=11 / psy=1 / psy_rd=1.00:0.00 / mixed_ref=1 / me_range=64 / chroma_me=1 / trellis=2 / 8x8dct=1 / cqm=0 / deadzone=21,11 / fast_pskip=1 / chroma_qp_offset=-2 / threads=24 / lookahead_threads=2 / sliced_threads=0 / nr=0 / decimate=1 / interlaced=0 / bluray_compat=0 / constrained_intra=0 / bframes=4 / b_pyramid=2 / b_adapt=1 / b_bias=0 / direct=1 / weightb=1 / open_gop=0 / weightp=1 / keyint=250 / keyint_min=23 / scenecut=40 / intra_refresh=0 / rc_lookahead=120 / rc=2pass / mbtree=1 / bitrate=3306 / ratetol=1.0 / qcomp=0.60 / qpmin=0 / qpmax=69 / qpstep=4 / cplxblur=20.0 / qblur=0.5 / vbv_maxrate=99999 / vbv_bufsize=99999 / nal_hrd=none / filler=0 / ip_ratio=1.40 / aq=1:1.00
Language : English
Default : Yes
Forced : No

Audio #1
ID : 2
Format : AC-3
Format/Info : Audio Coding 3
Commercial name : Dolby Digital
Codec ID : A_AC3
Duration : 2 h 10 min
Bit rate mode : Constant
Bit rate : 640 kb/s
Channel(s) : 6 channels
Channel layout : L R C LFE Ls Rs
Sampling rate : 48.0 kHz
Frame rate : 31.250 FPS (1536 SPF)
Bit depth : 16 bits
Compression mode : Lossy
Stream size : 597 MiB (13%)
Title : AC3 BD MASTER
Language : Thai
Service kind : Complete Main
Default : Yes
Forced : Yes

Audio #2
ID : 3
Format : DTS
Format/Info : Digital Theater Systems
Codec ID : A_DTS
Duration : 2 h 10 min
Bit rate mode : Constant
Bit rate : 755 kb/s
Channel(s) : 6 channels
Channel layout : C L R Ls Rs LFE
Sampling rate : 48.0 kHz
Frame rate : 93.750 FPS (512 SPF)
Bit depth : 24 bits
Compression mode : Lossy
Stream size : 704 MiB (16%)
Title : DTS @768
Language : English
Default : No
Forced : No

Text #1
ID : 4
Format : VobSub
Codec ID : S_VOBSUB
Codec ID/Info : Picture based subtitle format used on DVDs
Title : 1080P BD MASTER
Language : Thai
Default : Yes
Forced : Yes

Text #2
ID : 5
Format : VobSub
Codec ID : S_VOBSUB
Codec ID/Info : Picture based subtitle format used on DVDs
Title : 1080P YELLOW
Language : Thai
Default : No
Forced : No

Text #3
ID : 6
Format : VobSub
Codec ID : S_VOBSUB
Codec ID/Info : Picture based subtitle format used on DVDs
Title : 1080P UNDER
Language : Thai
Default : No
Forced : No

Text #4
ID : 7
Format : VobSub
Codec ID : S_VOBSUB
Codec ID/Info : Picture based subtitle format used on DVDs
Title : 480P
Language : Thai
Default : No
Forced : No

Text #5
ID : 8
Format : PGS
Codec ID : S_HDMV/PGS
Codec ID/Info : Picture based subtitle format used on BDs/HD-DVDs
Title : BD MASTER
Language : Thai
Default : No
Forced : No

Text #6
ID : 9
Format : PGS
Codec ID : S_HDMV/PGS
Codec ID/Info : Picture based subtitle format used on BDs/HD-DVDs
Title : BD UNDER
Language : Thai
Default : No
Forced : No

Text #7
ID : 10
Format : PGS
Codec ID : S_HDMV/PGS
Codec ID/Info : Picture based subtitle format used on BDs/HD-DVDs
Title : BD MASTER
Language : English
Default : No
Forced : No

DOWNLOAD


PART01 |||| PART02 |||| PART03 |||| PART04 |||| PART05

PART01 |||| PART02 |||| PART03 |||| PART04 |||| PART05

PART01 |||| PART02 |||| PART03 |||| PART04 |||| PART05

PART01 |||| PART02 |||| PART03 |||| PART04 |||| PART05

PART01 |||| PART02 |||| PART03 |||| PART04 |||| PART05


Leave A Reply

Your email address will not be published.

%d bloggers like this: