[MINI Super-HQ] Irresistible (2020) หาเสียงอลเวง [1080p] [พากย์ไทย 2.0 + เสียงอังกฤษ DTS] [บรรยายไทย + อังกฤษ] [เสียงไทยมาสเตอร์ + ซับไทย] [USERLOAD]

0

โหลดหนัง Irresistible (2020) หาเสียงอลเวง

Irresistible 101min | Comedy, Drama | June 26, 2020 (United States) Summary: A Democratic strategist helps a retired veteran run for mayor in a small, conservative Midwest town.
Countries: United StatesLanguages: English

เรื่องย่อ Irresistible (2020) หาเสียงอลเวง

ผลงานคอเมดี้ จากผู้เขียนบทและผู้กำกับ จอน สจ๊วต เมื่อที่ปรึกษาทางการเมืองของพรรคเดโมแครต ต้องช่วยนายพันปลดเกษียณจากกองทัพเรือลงสมัครตำแหน่งนายกเทศมนตรีในเมืองเล็ก ๆ แห่งหนึ่งของวิสคอนซิน!!!

Complete name : [MINI Super-HQ]_Irresistible.2020.1080p.BrRip.DTS.x264.THM.One2loadup.com.mkv
Format : Matroska
Format version : Version 4
File size : 3.50 GiB
Duration : 1 h 41 min
Overall bit rate : 4 930 kb/s
Movie name : [MINI Super-HQ]_Irresistible.2020.1080p.BrRip.DTS.x264.THM.One2loadup.com
Encoded date : UTC 2021-08-20 21:04:24
Writing application : mkvmerge v9.8.0 (‘Kuglblids’) 64bit
Writing library : libebml v1.3.4 + libmatroska v1.4.5

Video
ID : 1
Format : AVC
Format/Info : Advanced Video Codec
Format profile : [email protected]
Format settings : CABAC / 4 Ref Frames
Format settings, CABAC : Yes
Format settings, Reference : 4 frames
Codec ID : V_MPEG4/ISO/AVC
Duration : 1 h 41 min
Bit rate : 3 598 kb/s
Width : 1 800 pixels
Height : 1 080 pixels
Display aspect ratio : 5:3
Frame rate mode : Constant
Frame rate : 23.976 (24000/1001) FPS
Color space : YUV
Chroma subsampling : 4:2:0
Bit depth : 8 bits
Scan type : Progressive
Bits/(Pixel*Frame) : 0.077
Stream size : 2.55 GiB (73%)
Title : [MINI Super-HQ]_Irresistible.2020.1080p.BrRip.DTS.x264.THM.One2loadup.com
Language : English
Default : Yes
Forced : No

Audio #1
ID : 2
Format : AC-3
Format/Info : Audio Coding 3
Commercial name : Dolby Digital
Codec ID : A_AC3
Duration : 1 h 41 min
Bit rate mode : Constant
Bit rate : 384 kb/s
Channel(s) : 2 channels
Channel layout : L R
Sampling rate : 48.0 kHz
Frame rate : 31.250 FPS (1536 SPF)
Compression mode : Lossy
Stream size : 279 MiB (8%)
Title : Thai Master
Language : Thai
Service kind : Complete Main
Default : Yes
Forced : Yes

Audio #2
ID : 3
Format : DTS
Format/Info : Digital Theater Systems
Codec ID : A_DTS
Duration : 1 h 41 min
Bit rate mode : Constant
Bit rate : 755 kb/s
Channel(s) : 6 channels
Channel layout : C L R Ls Rs LFE
Sampling rate : 48.0 kHz
Frame rate : 93.750 FPS (512 SPF)
Bit depth : 24 bits
Compression mode : Lossy
Stream size : 548 MiB (15%)
Title : English DTS-5.1
Language : English
Default : No
Forced : No

Text #1
ID : 4
Format : PGS
Codec ID : S_HDMV/PGS
Codec ID/Info : Picture based subtitle format used on BDs/HD-DVDs
Duration : 1 h 41 min
Bit rate : 63.8 kb/s
Count of elements : 4064
Stream size : 46.3 MiB (1%)
Title : Thai 1080p PGS
Language : Thai
Default : Yes
Forced : Yes

Text #2
ID : 5
Format : VobSub
Codec ID : S_VOBSUB
Codec ID/Info : Picture based subtitle format used on DVDs
Duration : 1 h 41 min
Bit rate : 15.2 kb/s
Count of elements : 2031
Stream size : 11.0 MiB (0%)
Title : Thai 1080p
Language : Thai
Default : No
Forced : No

Text #3
ID : 6
Format : PGS
Codec ID : S_HDMV/PGS
Codec ID/Info : Picture based subtitle format used on BDs/HD-DVDs
Duration : 37 min 0 s
Bit rate : 63.3 kb/s
Count of elements : 1504
Stream size : 16.8 MiB (0%)
Title : Thai 1080p Out PGS
Language : Thai
Default : No
Forced : No

Text #4
ID : 7
Format : VobSub
Codec ID : S_VOBSUB
Codec ID/Info : Picture based subtitle format used on DVDs
Duration : 37 min 0 s
Bit rate : 15.1 kb/s
Count of elements : 751
Stream size : 3.99 MiB (0%)
Title : Thai 1080p Out
Language : Thai
Default : No
Forced : No

Text #5
ID : 8
Format : VobSub
Codec ID : S_VOBSUB
Codec ID/Info : Picture based subtitle format used on DVDs
Duration : 1 h 41 min
Bit rate : 20.8 kb/s
Count of elements : 2031
Stream size : 15.1 MiB (0%)
Title : Thai 1080p Big [Yellow]
Language : Thai
Default : No
Forced : No

Text #6
ID : 9
Format : PGS
Codec ID : S_HDMV/PGS
Codec ID/Info : Picture based subtitle format used on BDs/HD-DVDs
Duration : 1 h 40 min
Bit rate : 62.6 kb/s
Count of elements : 3550
Stream size : 45.1 MiB (1%)
Title : English PGS
Language : English
Default : No
Forced : No

Text #7
ID : 10
Format : UTF-8
Codec ID : S_TEXT/UTF8
Codec ID/Info : UTF-8 Plain Text
Duration : 1 h 40 min
Bit rate : 88 b/s
Count of elements : 1687
Stream size : 65.6 KiB (0%)
Title : English SRT
Language : English
Default : No
Forced : No

Menu
00:00:00.000 : en:Chapter 01
00:04:51.291 : en:Chapter 02
00:10:15.448 : en:Chapter 03
00:13:29.017 : en:Chapter 04
00:18:12.717 : en:Chapter 05
00:25:48.964 : en:Chapter 06
00:29:34.898 : en:Chapter 07
00:35:03.893 : en:Chapter 08
00:38:58.461 : en:Chapter 09
00:43:48.793 : en:Chapter 10
00:48:48.342 : en:Chapter 11
00:54:43.155 : en:Chapter 12
01:02:36.086 : en:Chapter 13
01:08:10.295 : en:Chapter 14
01:12:35.977 : en:Chapter 15
01:17:51.375 : en:Chapter 16
01:21:37.601 : en:Chapter 17
01:25:55.025 : en:Chapter 18
01:29:29.406 : en:Chapter 19
01:35:01.237 : en:Chapter 20

DOWNLOAD


PART01 |||| PART02 |||| PART03 |||| PART04

PART01 |||| PART02 |||| PART03 |||| PART04

PART01 |||| PART02 |||| PART03 |||| PART04

PART01 |||| PART02 |||| PART03 |||| PART04

PART01 |||| PART02 |||| PART03 |||| PART04


Leave A Reply

อีเมล์ของคุณจะไม่แสดงให้เห็น Your email address will not be published.

%d bloggers like this: