[MINI Super-HQ] Invisible Evidence (2020) ปริศนามืด ปมพยานบอด [1080p] [พากย์ไทย 2.0 + เสียงเวียดนาม 2.0] [บรรยายไทย + อังกฤษ] [เสียงไทยมาสเตอร์ + ซับไทย] [USERLOAD]

0

โหลดหนัง Invisible Evidence (2020) ปริศนามืด ปมพยานบอด

Invisible Evidence 100min | Action, Crime, Drama, Mystery, Thriller | July 10, 2020 (Vietnam) Summary: Invisible Evidence follows a blind girl on her journey to solve a case in which she happens to be a witness
Countries: VietnamLanguages: Vietnamese

เรื่องย่อ Invisible Evidence (2020) ปริศนามืด ปมพยานบอด

หญิงสาวตาบอดนั่งรถแท็กซี่เพื่อกลับบ้านท่ามกลางฝนตกในวันหนึ่ง และเธอได้สัมผัสเหตุการณ์ที่เธอเชื่อว่าเป็นเหตุฆาตกรรมจึงได้เข้าแจ้งความ แต่ดูเหมือนว่าตำรวจจะไม่เชื่อตามที่เธอเล่า ซ้ำร้ายไปกว่านั้นก็คือมีเด็กหนุ่มมาบอกว่าได้เห็นเหตุการณ์เหมือนกันแต่เป็นตรงกันข้ามกับที่เธอเล่าเลย ความระทึกขวัญตามมาเมื่อมันเป็นเหตุฆาตกรรมจริงๆ และคนร้ายก็แอบจับตาดูพยานทั้งสองคนอยู่เงียบๆ เพื่อหาทางปิดปาก!!!

Complete name : [MINI Super-HQ]_Invisible.Evidence.2020.1080p.WEB-DL.x264.AC3.THM.One2loadup.com.mkv
Format : Matroska
Format version : Version 4
File size : 3.93 GiB
Duration : 1 h 40 min
Overall bit rate : 5 595 kb/s
Movie name : [MINI Super-HQ]_Invisible.Evidence.2020.1080p.WEB-DL.x264.AC3.THM.One2loadup.com
Encoded date : UTC 2021-08-16 15:55:17
Writing application : mkvmerge v9.8.0 (‘Kuglblids’) 64bit
Writing library : libebml v1.3.4 + libmatroska v1.4.5

Video
ID : 1
Format : AVC
Format/Info : Advanced Video Codec
Format profile : [email protected]
Format settings : CABAC / 2 Ref Frames
Format settings, CABAC : Yes
Format settings, Reference : 2 frames
Format settings, GOP : M=3, N=50
Codec ID : V_MPEG4/ISO/AVC
Duration : 1 h 40 min
Bit rate : 4 762 kb/s
Width : 1 920 pixels
Height : 1 080 pixels
Display aspect ratio : 16:9
Frame rate mode : Constant
Frame rate : 25.000 FPS
Color space : YUV
Chroma subsampling : 4:2:0
Bit depth : 8 bits
Scan type : Progressive
Bits/(Pixel*Frame) : 0.092
Stream size : 3.34 GiB (85%)
Title : [MINI Super-HQ]_Invisible.Evidence.2020.1080p.WEB-DL.x264.AC3.THM.One2loadup.com
Language : Vietnamese
Default : Yes
Forced : No
Color range : Limited
Color primaries : BT.709
Transfer characteristics : BT.709
Matrix coefficients : BT.709

Audio #1
ID : 2
Format : AC-3
Format/Info : Audio Coding 3
Commercial name : Dolby Digital
Codec ID : A_AC3
Duration : 1 h 40 min
Bit rate mode : Constant
Bit rate : 384 kb/s
Channel(s) : 2 channels
Channel layout : L R
Sampling rate : 48.0 kHz
Frame rate : 31.250 FPS (1536 SPF)
Compression mode : Lossy
Stream size : 276 MiB (7%)
Title : Thai Master
Language : Thai
Service kind : Complete Main
Default : Yes
Forced : Yes

Audio #2
ID : 3
Format : AC-3
Format/Info : Audio Coding 3
Commercial name : Dolby Digital
Codec ID : A_AC3
Duration : 1 h 40 min
Bit rate mode : Constant
Bit rate : 384 kb/s
Channel(s) : 2 channels
Channel layout : L R
Sampling rate : 48.0 kHz
Frame rate : 31.250 FPS (1536 SPF)
Compression mode : Lossy
Stream size : 276 MiB (7%)
Title : Vietnam Master
Language : Vietnamese
Service kind : Complete Main
Default : No
Forced : No

Text #1
ID : 4
Format : PGS
Codec ID : S_HDMV/PGS
Codec ID/Info : Picture based subtitle format used on BDs/HD-DVDs
Duration : 1 h 40 min
Bit rate : 22.7 kb/s
Count of elements : 1756
Stream size : 16.3 MiB (0%)
Title : Thai 1080p PGS
Language : Thai
Default : Yes
Forced : Yes

Text #2
ID : 5
Format : VobSub
Codec ID : S_VOBSUB
Codec ID/Info : Picture based subtitle format used on DVDs
Duration : 1 h 40 min
Bit rate : 5 306 b/s
Count of elements : 878
Stream size : 3.81 MiB (0%)
Title : Thai 1080p
Language : Thai
Default : No
Forced : No

Text #3
ID : 6
Format : PGS
Codec ID : S_HDMV/PGS
Codec ID/Info : Picture based subtitle format used on BDs/HD-DVDs
Duration : 1 h 40 min
Bit rate : 22.3 kb/s
Count of elements : 1756
Stream size : 16.0 MiB (0%)
Title : Thai 1080p Out PGS
Language : Thai
Default : No
Forced : No

Text #4
ID : 7
Format : VobSub
Codec ID : S_VOBSUB
Codec ID/Info : Picture based subtitle format used on DVDs
Duration : 1 h 40 min
Bit rate : 5 229 b/s
Count of elements : 878
Stream size : 3.76 MiB (0%)
Title : Thai 1080p Out
Language : Thai
Default : No
Forced : No

Text #5
ID : 8
Format : VobSub
Codec ID : S_VOBSUB
Codec ID/Info : Picture based subtitle format used on DVDs
Duration : 1 h 40 min
Bit rate : 7 268 b/s
Count of elements : 878
Stream size : 5.22 MiB (0%)
Title : Thai 1080p Big [Yellow]
Language : Thai
Default : No
Forced : No

Text #6
ID : 9
Format : UTF-8
Codec ID : S_TEXT/UTF8
Codec ID/Info : UTF-8 Plain Text
Duration : 1 h 33 min
Bit rate : 36 b/s
Count of elements : 973
Stream size : 24.8 KiB (0%)
Title : English SRT
Language : English
Default : No
Forced : No

DOWNLOAD


PART01 |||| PART02 |||| PART03 |||| PART04

PART01 |||| PART02 |||| PART03 |||| PART04

PART01 |||| PART02 |||| PART03 |||| PART04

PART01 |||| PART02 |||| PART03 |||| PART04

PART01 |||| PART02 |||| PART03 |||| PART04


Leave A Reply

อีเมล์ของคุณจะไม่แสดงให้เห็น Your email address will not be published.

%d bloggers like this: