[MINI Super-HQ] Indiana Jones And The Raiders of the Lost Ark (1981) ขุมทรัพย์สุดขอบฟ้า ภาค 1 [1080p] [พากย์ไทย 5.1 + เสียงอังกฤษ DTS] [บรรยายไทย + อังกฤษ] [เสียงไทย + ซับไทย] [PANDAFILE]

6

โหลดหนัง Indiana Jones And The Raiders of the Lost Ark (1981) ขุมทรัพย์สุดขอบฟ้า ภาค 1

Indiana Jones and the Raiders of the Lost Ark | June 12, 1981 (United States) Summary: Archaeology professor Indiana Jones ventures to seize a biblical artefact known as the Ark of the Covenant. While doing so, he puts up a fight against Renee and a troop of Nazis.
Countries: United StatesLanguages: English, German, Hebrew, Spanish, Arabic, Nepali

เรื่องย่อ Indiana Jones And The Raiders of the Lost Ark (1981) ขุมทรัพย์สุดขอบฟ้า ภาค 1

อินเดียน่า โจนส์ (แฮริสัน ฟอร์ด) ศาตราจารย์ด้านโบราณคดี อีกโฉมหน้าหนึ่ง เขาคือ นักผจญภัยหนุ่ม ซึ่งรับบาลว่าจ้างให้ออกติดตาม หาหีบพระบัญญัติศักดิ์สิทธิ์ของโมเสส ก่อนที่พวกนาซีจะหาพบ

Complete name : [MINI Super-HQ]_Indiana.Jones.Raiders.of.the.Lost.Ark.1981.1080p.DTS.BrRip.x264.One2loadup.com.mkv
Format : Matroska
Format version : Version 2
File size : 4.50 GiB
Duration : 1 h 55 min
Overall bit rate : 5 587 kb/s
Movie name : [MINI Super-HQ]_Indiana.Jones.Raiders.of.the.Lost.Ark.1981.1080p.DTS.BrRip.x264.One2loadup.com
Encoded date : UTC 2017-01-10 14:34:25
Writing application : mkvmerge v5.8.0 (‘No Sleep / Pillow’) built on Sep 2 2012 15:37:04
Writing library : libebml v1.2.3 + libmatroska v1.3.0

Video
ID : 1
Format : AVC
Format/Info : Advanced Video Codec
Format profile : [email protected]
Format settings : CABAC / 5 Ref Frames
Format settings, CABAC : Yes
Format settings, ReFrames : 5 frames
Codec ID : V_MPEG4/ISO/AVC
Duration : 1 h 55 min
Bit rate : 4 317 kb/s
Width : 1 920 pixels
Height : 816 pixels
Display aspect ratio : 2.35:1
Frame rate mode : Constant
Frame rate : 23.976 (24000/1001) FPS
Color space : YUV
Chroma subsampling : 4:2:0
Bit depth : 8 bits
Scan type : Progressive
Bits/(Pixel*Frame) : 0.115
Stream size : 3.44 GiB (76%)
Title : [MINI Super-HQ]_Indiana.Jones.Raiders.of.the.Lost.Ark.1981.1080p.DTS.BrRip.x264.One2loadup.com

Writing library : x264 core 148 r2694 3b70645
Encoding settings : cabac=1 / ref=5 / deblock=1:-2:-2 / analyse=0x3:0x133 / me=umh / subme=11 / psy=1 / psy_rd=1.00:0.25 / mixed_ref=1 / me_range=32 / chroma_me=1 / trellis=2 / 8x8dct=1 / cqm=0 / deadzone=21,11 / fast_pskip=0 / chroma_qp_offset=-4 / threads=12 / lookahead_threads=1 / sliced_threads=0 / nr=0 / decimate=1 / interlaced=0 / bluray_compat=0 / constrained_intra=0 / bframes=4 / b_pyramid=2 / b_adapt=2 / b_bias=0 / direct=3 / weightb=1 / open_gop=0 / weightp=2 / keyint=240 / keyint_min=23 / scenecut=40 / intra_refresh=0 / rc_lookahead=60 / rc=2pass / mbtree=1 / bitrate=4317 / ratetol=1.0 / qcomp=0.60 / qpmin=0 / qpmax=69 / qpstep=4 / cplxblur=20.0 / qblur=0.5 / ip_ratio=1.40 / aq=1:1.00
Language : English
Default : Yes
Forced : Yes
Statistics Tags Issue : mkvmerge v9.3.1 (‘Mask Machine’) 64bit 2016-11-10 17:03:09 / mkvmerge v5.8.0 (‘No Sleep / Pillow’) built on Sep 2 2012 15:37:04 2017-01-10 14:34:25
FromStats_BitRate : 4316814
FromStats_Duration : 01:55:18.829000000
FromStats_FrameCount : 165886
FromStats_StreamSize : 3733412587

Audio #1
ID : 2
Format : AC-3
Format/Info : Audio Coding 3
Codec ID : A_AC3
Duration : 1 h 55 min
Bit rate mode : Constant
Bit rate : 448 kb/s
Channel(s) : 6 channels
Channel positions : Front: L C R, Side: L R, LFE
Sampling rate : 48.0 kHz
Frame rate : 31.250 FPS (1536 SPF)
Bit depth : 16 bits
Compression mode : Lossy
Delay relative to video : 24 ms
Stream size : 370 MiB (8%)
Title : THAI DVD 5.1 @ 448 Kbps
Language : Thai
Service kind : Complete Main
Default : Yes
Forced : Yes

Audio #2
ID : 3
Format : DTS
Format/Info : Digital Theater Systems
Codec ID : A_DTS
Duration : 1 h 55 min
Bit rate mode : Constant
Bit rate : 755 kb/s
Channel(s) : 6 channels
Channel positions : Front: L C R, Side: L R, LFE
Sampling rate : 48.0 kHz
Frame rate : 93.750 FPS (512 SPF)
Bit depth : 24 bits
Compression mode : Lossy
Stream size : 622 MiB (14%)
Title : ENG DTS 5.1 @ 755 Kbps
Language : English
Default : No
Forced : No

Text #1
ID : 4
Format : VobSub
Codec ID : S_VOBSUB
Codec ID/Info : Picture based subtitle format used on DVDs
Title : THAI 480p DVD Master
Language : Thai
Default : No
Forced : No

Text #2
ID : 5
Format : VobSub
Codec ID : S_VOBSUB
Codec ID/Info : Picture based subtitle format used on DVDs
Title : THAI 1080p
Language : Thai
Default : Yes
Forced : Yes

Text #3
ID : 6
Format : VobSub
Codec ID : S_VOBSUB
Codec ID/Info : Picture based subtitle format used on DVDs
Title : THAI 1080p Yellow
Language : Thai
Default : No
Forced : No

Text #4
ID : 7
Format : VobSub
Codec ID : S_VOBSUB
Codec ID/Info : Picture based subtitle format used on DVDs
Title : THAI 1080p Out
Language : Thai
Default : No
Forced : No

Text #5
ID : 8
Format : PGS
Codec ID : S_HDMV/PGS
Codec ID/Info : Picture based subtitle format used on BDs/HD-DVDs
Title : THAI PGS 1080p
Language : Thai
Default : No
Forced : No

Text #6
ID : 9
Format : PGS
Codec ID : S_HDMV/PGS
Codec ID/Info : Picture based subtitle format used on BDs/HD-DVDs
Title : THAI PGS 1080p Out
Language : Thai
Default : No
Forced : No

Text #7
ID : 10
Format : PGS
Codec ID : S_HDMV/PGS
Codec ID/Info : Picture based subtitle format used on BDs/HD-DVDs
Title : ENG PGS 1080p
Language : English
Default : No
Forced : No

Menu
00:00:00.000 : en:South America, 1936
00:03:16.530 : en:The Man with the Hat
00:05:44.636 : en:The Golden Idol
00:09:51.132 : en:Belloq and the Hovitos
00:12:49.352 : en:Archaeology Lesson
00:15:23.631 : en:Special Assignment
00:20:27.435 : en:Cautious Guy
00:22:58.419 : en:Nepal: The Raven
00:28:51.355 : en:Fight for the Medallion
00:33:42.395 : en:To Cairo
00:36:23.390 : en:The Marketplace
00:40:04.819 : en:Basket Chase
00:42:16.159 : en:Meeting with Belloq
00:46:41.507 : en:Bad Dates
00:49:32.928 : en:Tanis Dig
00:51:00.933 : en:The Map Room
00:55:11.141 : en:Reunited with Marion
00:58:33.218 : en:Uncovering the Well of Souls
01:03:05.740 : en:Into the Well of Souls
01:08:26.144 : en:The Ark Revealed
01:10:25.346 : en:Trapped
01:15:33.154 : en:Flying Wing
01:22:24.356 : en:Desert Chase
01:25:43.764 : en:Dragged Behind
01:29:57.517 : en:The Bantu Wind
01:34:30.665 : en:Confrontation at Sea
01:38:06.172 : en:The Nazis’ Secret Island
01:41:06.060 : en:Indy’s Bluff
01:44:06.824 : en:The Ark Ceremony
01:47:01.415 : en:The Power of the Ark
01:49:05.998 : en:Washington D.C. and End Credits

DOWNLOAD


PART01 |||| PART02 |||| PART03 |||| PART04 |||| PART05

PART01 |||| PART02 |||| PART03 |||| PART04 |||| PART05

PART01 |||| PART02 |||| PART03 |||| PART04 |||| PART05

PART01 |||| PART02 |||| PART03 |||| PART04 |||| PART05

PART01 |||| PART02 |||| PART03 |||| PART04 |||| PART05


6 Comments
  1. Tan159682
    Tan159682 says

    part2,3,4 โหลดไม่ได้ครับ

    1. Admin
      Admin says

      แก้ไขเรียบร้อยฮ๊ะ

  2. ฺBESTNATTAPON says

    ไฟล์เสียเด้อ

    1. Admin
      Admin says

      แก้ไขเรียบร้อยฮ๊ะ

  3. ฺBESTNATTAPON says

    ไฟล์เสียฮ๊ะ

    1. Admin
      Admin says

      แก้ไขเรียบร้อยฮ๊ะ แนะนำให้แจ้งรอบเดียวนะฮ๊ะ

Leave A Reply

อีเมล์ของคุณจะไม่แสดงให้เห็น Your email address will not be published.

%d bloggers like this: