[MINI Super-HQ] Indiana Jones And The Last Crusade (1989) ขุมทรัพย์สุดขอบฟ้า ศึกอภินิหารครูเสด ภาค 3 [1080p] [พากย์ไทย 5.1 + เสียงอังกฤษ DTS] [บรรยายไทย + อังกฤษ] [เสียงไทย + ซับไทย] [PANDAFILE]

2

Indiana Jones And The Last Crusade (1989) ขุมทรัพย์สุดขอบฟ้า ศึกอภินิหารครูเสด ภาค 3

โหลดหนัง Indiana Jones And The Last Crusade (1989) ขุมทรัพย์สุดขอบฟ้า ศึกอภินิหารครูเสด ภาค 3

Indiana Jones and the Last Crusade | May 24, 1989 (United States) Summary: In 1938, after his father Professor Henry Jones, Sr. goes missing while pursuing the Holy Grail, Professor Henry "Indiana" Jones, Jr. finds himself up against Adolf Hitler's Nazis again to s... Read all
Countries: United StatesLanguages: English, German, Greek, Arabic

เรื่องย่อ Indiana Jones And The Last Crusade (1989) ขุมทรัพย์สุดขอบฟ้า ศึกอภินิหารครูเสด ภาค 3

ในปี 1983 อินดี้ (แฮริสัน ฟอร์ด) ทราบข่าวว่า พ่อของเขา ซึ่งเป็นนักโบราณคดี ศาสตราจารย์เฮนรี่ โจนส์ (ฌอน คอนเนอรี่) ได้หายตัวไป ในขณะที่เขากำลังตามหาสิ่งของชิ้นหนึ่ง อินดี้ จึงเริ่มออกเดินทางเพื่อตามหาพ่อและก็ได้พบกับสมุดไดอารี่ของพ่อที่เขียนแผนที่และคำอธิบายต่างๆ ด้วยลายมือของเขาเอง เกี่ยวกับทรัพย์สมบัติที่ศักดิ์สิทธิ์ที่สุดของโลกที่ถูกซ่อนไว้ รวมไปถึง Holy Grail จานที่เชื่อกันว่า พระเยซูใช้กินอาหารในมื้อสุดท้ายด้วยงานนี้ ทำให้อินดี้ ต้องเข้าไปผจญภัยในดงของพวกนาซีอย่างหลีกเลี่ยงไม่ได้ เพื่อเข้าไปช่วยพ่อของเขาให้ และแย่งชิงไดอารี่กับจานโฮลี่ เกรล กลับคืนมาจากพวกนาซีจอมโหดเหล่านี้ให้ได้

Complete name : [MINI Super-HQ]_Indiana.Jones.and.the.Last.Crusade.1989.1080p.DTS.BrRip.x264.One2loadup.com.mkv
Format : Matroska
Format version : Version 2
File size : 4.55 GiB
Duration : 2 h 6 min
Overall bit rate : 5 131 kb/s
Movie name : [MINI Super-HQ]_Indiana.Jones.and.the.Last.Crusade.1989.1080p.DTS.BrRip.x264.One2loadup.com
Encoded date : UTC 2017-01-10 15:19:00
Writing application : mkvmerge v5.8.0 (‘No Sleep / Pillow’) built on Sep 2 2012 15:37:04
Writing library : libebml v1.2.3 + libmatroska v1.3.0

Video
ID : 1
Format : AVC
Format/Info : Advanced Video Codec
Format profile : [email protected]
Format settings : CABAC / 5 Ref Frames
Format settings, CABAC : Yes
Format settings, ReFrames : 5 frames
Codec ID : V_MPEG4/ISO/AVC
Duration : 2 h 6 min
Bit rate : 3 865 kb/s
Width : 1 920 pixels
Height : 816 pixels
Display aspect ratio : 2.35:1
Frame rate mode : Constant
Frame rate : 23.976 (24000/1001) FPS
Color space : YUV
Chroma subsampling : 4:2:0
Bit depth : 8 bits
Scan type : Progressive
Bits/(Pixel*Frame) : 0.103
Stream size : 3.39 GiB (75%)
Title : [MINI Super-HQ]_Indiana.Jones.and.the.Last.Crusade.1989.1080p.DTS.BrRip.x264.One2loadup.com
Writing library : x264 core 148 r2694 3b70645
Encoding settings : cabac=1 / ref=5 / deblock=1:-2:-2 / analyse=0x3:0x133 / me=umh / subme=11 / psy=1 / psy_rd=1.00:0.25 / mixed_ref=1 / me_range=32 / chroma_me=1 / trellis=2 / 8x8dct=1 / cqm=0 / deadzone=21,11 / fast_pskip=0 / chroma_qp_offset=-4 / threads=12 / lookahead_threads=1 / sliced_threads=0 / nr=0 / decimate=1 / interlaced=0 / bluray_compat=0 / constrained_intra=0 / bframes=4 / b_pyramid=2 / b_adapt=2 / b_bias=0 / direct=3 / weightb=1 / open_gop=0 / weightp=2 / keyint=240 / keyint_min=23 / scenecut=40 / intra_refresh=0 / rc_lookahead=60 / rc=2pass / mbtree=1 / bitrate=3865 / ratetol=1.0 / qcomp=0.60 / qpmin=0 / qpmax=69 / qpstep=4 / cplxblur=20.0 / qblur=0.5 / ip_ratio=1.40 / aq=1:1.00
Language : English
Default : Yes
Forced : Yes
Statistics Tags Issue : mkvmerge v9.3.1 (‘Mask Machine’) 64bit 2016-11-10 17:02:09 / mkvmerge v5.8.0 (‘No Sleep / Pillow’) built on Sep 2 2012 15:37:04 2017-01-10 15:19:00
FromStats_BitRate : 3864838
FromStats_Duration : 02:06:53.314000000
FromStats_FrameCount : 182537
FromStats_StreamSize : 3678028396

Audio #1
ID : 2
Format : AC-3
Format/Info : Audio Coding 3
Codec ID : A_AC3
Duration : 2 h 6 min
Bit rate mode : Constant
Bit rate : 448 kb/s
Channel(s) : 6 channels
Channel positions : Front: L C R, Side: L R, LFE
Sampling rate : 48.0 kHz
Frame rate : 31.250 FPS (1536 SPF)
Bit depth : 16 bits
Compression mode : Lossy
Stream size : 407 MiB (9%)
Title : THAI DVD 5.1 @ 448 Kbps
Language : Thai
Service kind : Complete Main
Default : Yes
Forced : Yes

Audio #2
ID : 3
Format : DTS
Format/Info : Digital Theater Systems
Codec ID : A_DTS
Duration : 2 h 6 min
Bit rate mode : Constant
Bit rate : 755 kb/s
Channel(s) : 6 channels
Channel positions : Front: L C R, Side: L R, LFE
Sampling rate : 48.0 kHz
Frame rate : 93.750 FPS (512 SPF)
Bit depth : 24 bits
Compression mode : Lossy
Stream size : 685 MiB (15%)
Title : ENG DTS 5.1 @ 755 Kbps
Language : English
Default : No
Forced : No

Text #1
ID : 4
Format : VobSub
Codec ID : S_VOBSUB
Codec ID/Info : Picture based subtitle format used on DVDs
Title : THAI 1080p
Language : Thai
Default : Yes
Forced : Yes

Text #2
ID : 5
Format : VobSub
Codec ID : S_VOBSUB
Codec ID/Info : Picture based subtitle format used on DVDs
Title : THAI 1080p Yellow
Language : Thai
Default : No
Forced : No

Text #3
ID : 6
Format : VobSub
Codec ID : S_VOBSUB
Codec ID/Info : Picture based subtitle format used on DVDs
Title : THAI 1080p Out
Language : Thai
Default : No
Forced : No

Text #4
ID : 7
Format : PGS
Codec ID : S_HDMV/PGS
Codec ID/Info : Picture based subtitle format used on BDs/HD-DVDs
Title : THAI PGS 1080p
Language : Thai
Default : No
Forced : No

Text #5
ID : 8
Format : PGS
Codec ID : S_HDMV/PGS
Codec ID/Info : Picture based subtitle format used on BDs/HD-DVDs
Title : THAI PGS 1080p Out
Language : Thai
Default : No
Forced : No

Text #6
ID : 9
Format : UTF-8
Codec ID : S_TEXT/UTF8
Codec ID/Info : UTF-8 Plain Text
Title : ENG SRT
Language : English
Default : No
Forced : No

Menu
00:00:00.000 : en:Meeting Donovan
00:04:41.907 : en:Barnett College
00:08:11.032 : en:Portuguese Coast, 1938
00:11:49.042 : en:Belongs in a Museum
00:14:14.437 : en:The Pursuit
00:17:19.413 : en:Utah, 1912/the Cross of Coronado
00:22:14.583 : en:Ransacked
00:24:51.448 : en:To Venice
00:26:52.152 : en:”X” Marks the Spot
00:30:15.564 : en:Rats
00:36:31.564 : en:Boat Chase
00:41:10.426 : en:”Ah, Venice”
00:44:41.387 : en:To Castle Brunwald
00:47:42.401 : en:Family Reunion
00:50:23.729 : en:”What Book?”
00:54:47.534 : en:Broady and Sallah
00:56:31.138 : en:Austrian & German Goodbyes
01:00:16.112 : en:”Head for the Fireplace”
01:03:08.743 : en:Motorcycle Chase
01:05:31.386 : en:Grail Obsession
01:07:47.313 : en:Into the Lion’s Den
01:10:43.531 : en:The Zeppelin
01:13:36.329 : en:A Rebuke
01:16:11.358 : en:Dogfight
01:18:57.107 : en:Close Call
01:21:20.042 : en:Hatay
01:23:28.420 : en:Approaching the Canyon
01:25:16.737 : en:Ambush
01:26:58.046 : en:Belly of the Steel Beast
01:31:21.935 : en:Tank Showdown
01:36:57.061 : en:”I Thought I’d Lost You”
01:38:53.427 : en:Canyon of the Crescent Moon
01:41:32.545 : en:The Three Challenges
01:49:18.260 : en:”Choose Wisely”
01:56:05.667 : en:Crossing the Seal
02:00:05.907 : en:Sunset and End Credits

DOWNLOAD


PART01 |||| PART02 |||| PART03 |||| PART04 |||| PART05

PART01 |||| PART02 |||| PART03 |||| PART04 |||| PART05

PART01 |||| PART02 |||| PART03 |||| PART04 |||| PART05

PART01 |||| PART02 |||| PART03 |||| PART04 |||| PART05

PART01 |||| PART02 |||| PART03 |||| PART04 |||| PART05


2 Comments
  1. ฺBESTNATTAPON says

    ไฟล์เสียครับ

    1. Admin
      Admin says

      แก้ไขเรียบร้อยฮ๊ะ

Leave A Reply

อีเมล์ของคุณจะไม่แสดงให้เห็น Your email address will not be published.

%d bloggers like this: