[MINI Super-HQ] Inception (2010) จิตพิฆาตโลก [1080p] [พากย์ไทย 5.1 + เสียงอังกฤษ 5.1] [บรรยายไทย + อังกฤษ] [เสียงไทย + ซับไทย] [DOSYAUPLOAD]

0

โหลดหนัง Inception (2010) จิตพิฆาตโลก

Inception (2010) 148min | Action, Adventure, Sci-Fi | 16 July 2010 (USA) Summary: A thief who steals corporate secrets through the use of dream-sharing technology is given the inverse task of planting an idea into the mind of a C.E.O.
Countries: USA, UKLanguages: English, Japanese, French

เรื่องย่อ Inception (2010) จิตพิฆาตโลก

ดอม คอบบ์ (ลีโอนาร์โด ดิคาปริโอ) คือหัวขโมยมือหนึ่งในการฉกชิงความคิดอันล้ำค่าจากจิตใต้สำนึกของเป้าหมายด้วยการเข้าไปในความฝันของคนผู้นั้นในช่วงที่จิตใจเปราะบางที่สุด ความสามารถอันล้ำเลิศของดอมทำให้เขาเป็นที่ต้องการตัวของลูกค้า แต่มันก็ทำให้ดอมกลายเป็นนักโทษหลบหนีที่ไม่สามารถกลับไปพบหน้าลูกๆ ของเขาได้จนเมื่อดอมได้รับข้อเสนอที่จะทำให้เขาแก้ไขอดีตที่ผิดพลาด แต่มันเป็นงานที่ยากกว่าการขโมยความคิดอย่างที่เคยทำ เพราะนี่คือการเข้าไปปลูกฝังความคิดใหม่ ซึ่งถ้าสำเร็จมันจะกลายเป็นอาชญากรรมที่สมบูรณ์แบบที่สุด แต่ถึงจะวางแผนมาอย่างรอบคอบเพียงใดก็ไม่อาจทำให้พวกเขาหลุดพ้นอันตรายจากศัตรูที่เหมือนจะรู้ล่วงหน้าทุกความเคลื่อนไหวศัตรูซึ่งมีดอมเพียงคนเดียวที่มองเห็น!!!

Complete name : [MINI Super-HQ]_Inception.2010.1080p.BrRip.AC3.x264.One2loadup.com.mkv
Format : Matroska
Format version : Version 4
File size : 4.32 GiB
Duration : 2 h 28 min
Overall bit rate : 4 174 kb/s
Movie name : [MINI Super-HQ]_Inception.2010.1080p.BrRip.AC3.x264.One2loadup.com
Encoded date : UTC 2015-02-23 13:20:30
Writing application : mkvmerge v7.6.0 (‘Garden of Dreams’) 32bit built on Feb 8 2015 12:51:39
Writing library : libebml v1.3.1 + libmatroska v1.4.2

Video
ID : 1
Format : AVC
Format/Info : Advanced Video Codec
Format profile : [email protected]
Format settings : CABAC / 4 Ref Frames
Format settings, CABAC : Yes
Format settings, Reference : 4 frames
Codec ID : V_MPEG4/ISO/AVC
Duration : 2 h 28 min
Bit rate : 3 300 kb/s
Width : 1 920 pixels
Height : 800 pixels
Display aspect ratio : 2.40:1
Frame rate mode : Constant
Frame rate : 23.976 (24000/1001) FPS
Color space : YUV
Chroma subsampling : 4:2:0
Bit depth : 8 bits
Scan type : Progressive
Bits/(Pixel*Frame) : 0.090
Stream size : 3.41 GiB (79%)
Title : [MINI Super-HQ]_Inception.2010.1080p.BrRip.AC3.x264.One2loadup.com
Writing library : x264 core 138 r2358 9e941d1
Encoding settings : cabac=1 / ref=4 / deblock=1:-2:-2 / analyse=0x3:0x133 / me=tesa / subme=10 / psy=1 / psy_rd=1.00:0.00 / mixed_ref=1 / me_range=16 / chroma_me=1 / trellis=2 / 8x8dct=1 / cqm=0 / deadzone=21,11 / fast_pskip=1 / chroma_qp_offset=-2 / threads=6 / lookahead_threads=1 / sliced_threads=0 / nr=0 / decimate=1 / interlaced=0 / bluray_compat=0 / constrained_intra=0 / bframes=6 / b_pyramid=0 / b_adapt=1 / b_bias=0 / direct=1 / weightb=1 / open_gop=0 / weightp=2 / keyint=240 / keyint_min=24 / scenecut=40 / intra_refresh=0 / rc_lookahead=40 / rc=2pass / mbtree=1 / bitrate=3300 / ratetol=1.0 / qcomp=0.60 / qpmin=0 / qpmax=69 / qpstep=4 / cplxblur=20.0 / qblur=0.5 / vbv_maxrate=20000 / vbv_bufsize=20000 / nal_hrd=none / ip_ratio=1.40 / aq=1:1.00
Default : Yes
Forced : No

Audio #1
ID : 2
Format : AC-3
Format/Info : Audio Coding 3
Commercial name : Dolby Digital
Codec ID : A_AC3
Duration : 2 h 28 min
Bit rate mode : Constant
Bit rate : 384 kb/s
Channel(s) : 6 channels
Channel layout : L R C LFE Ls Rs
Sampling rate : 48.0 kHz
Frame rate : 31.250 FPS (1536 SPF)
Compression mode : Lossy
Stream size : 407 MiB (9%)
Title : Thai AC3 5.1 Ch
Language : Thai
Service kind : Complete Main
Default : Yes
Forced : Yes

Audio #2
ID : 3
Format : AC-3
Format/Info : Audio Coding 3
Commercial name : Dolby Digital
Codec ID : A_AC3
Duration : 2 h 28 min
Bit rate mode : Constant
Bit rate : 448 kb/s
Channel(s) : 6 channels
Channel layout : L R C LFE Ls Rs
Sampling rate : 48.0 kHz
Frame rate : 31.250 FPS (1536 SPF)
Compression mode : Lossy
Stream size : 475 MiB (11%)
Title : English AC3 5.1 Ch
Language : English
Service kind : Complete Main
Default : No
Forced : No

Text #1
ID : 4
Format : VobSub
Muxing mode : zlib
Codec ID : S_VOBSUB
Codec ID/Info : Picture based subtitle format used on DVDs
Duration : 2 h 26 min
Bit rate : 5 390 b/s
Count of elements : 1595
Stream size : 5.65 MiB (0%)
Title : Thai 1080p Sarabun
Language : Thai
Default : Yes
Forced : Yes

Text #2
ID : 5
Format : VobSub
Muxing mode : zlib
Codec ID : S_VOBSUB
Codec ID/Info : Picture based subtitle format used on DVDs
Duration : 2 h 26 min
Bit rate : 5 380 b/s
Count of elements : 1595
Stream size : 5.64 MiB (0%)
Title : Thai 1080p Angsana
Language : Thai
Default : No
Forced : No

Text #3
ID : 6
Format : VobSub
Muxing mode : zlib
Codec ID : S_VOBSUB
Codec ID/Info : Picture based subtitle format used on DVDs
Duration : 2 h 26 min
Bit rate : 2 760 b/s
Count of elements : 1595
Stream size : 2.89 MiB (0%)
Title : Thai 480p
Language : Thai
Default : No
Forced : No

Text #4
ID : 7
Format : PGS
Muxing mode : zlib
Codec ID : S_HDMV/PGS
Codec ID/Info : Picture based subtitle format used on BDs/HD-DVDs
Duration : 2 h 26 min
Bit rate : 14.9 kb/s
Count of elements : 3190
Stream size : 15.6 MiB (0%)
Title : Thai PGS Sarabun
Language : Thai
Default : No
Forced : No

Text #5
ID : 8
Format : PGS
Muxing mode : zlib
Codec ID : S_HDMV/PGS
Codec ID/Info : Picture based subtitle format used on BDs/HD-DVDs
Duration : 2 h 26 min
Bit rate : 15.0 kb/s
Count of elements : 3190
Stream size : 15.7 MiB (0%)
Title : Thai PGS Angsana
Language : Thai
Default : No
Forced : No

Text #6
ID : 9
Format : UTF-8
Codec ID : S_TEXT/UTF8
Codec ID/Info : UTF-8 Plain Text
Duration : 2 h 26 min
Bit rate : 117 b/s
Count of elements : 1595
Stream size : 126 KiB (0%)
Title : Thai SRT
Language : Thai
Default : No
Forced : No

Text #7
ID : 10
Format : UTF-8
Codec ID : S_TEXT/UTF8
Codec ID/Info : UTF-8 Plain Text
Duration : 2 h 18 min
Bit rate : 60 b/s
Count of elements : 1574
Stream size : 60.9 KiB (0%)
Title : English SRT
Language : English
Default : No
Forced : No

DOWNLOAD


PART01 |||| PART02 |||| PART03 |||| PART04 |||| PART05

PART01 |||| PART02 |||| PART03 |||| PART04 |||| PART05

PART01 |||| PART02 |||| PART03 |||| PART04 |||| PART05

PART01 |||| PART02 |||| PART03 |||| PART04 |||| PART05

PART01 |||| PART02 |||| PART03 |||| PART04 |||| PART05


Leave A Reply

Your email address will not be published.

%d bloggers like this: