[MINI Super-HQ] I, Robot (2004) ไอ โรบอท พิฆาตแผนจักรกลเขมือบโลก [1080p] [พากย์ไทย 5.1 + อังกฤษ 5.1] [บรรยายไทย + อังกฤษ] [เสียงไทย + ซับไทย] [OPENLOAD]

2

โหลดหนัง I Robot (2004) ไอ โรบอท พิฆาตแผนจักรกลเขมือบโลก

I, Robot (2004) 1h 55min | Action, Crime, Drama | 16 July 2004 (USA) Summary: In 2035, a technophobic cop investigates a crime that may have been perpetrated by a robot, which leads to a larger threat to humanity.
Countries: USA, GermanyLanguages: English

เรื่องย่อ I Robot (2004) ไอ โรบอท พิฆาตแผนจักรกลเขมือบโลก

จากหนังสือเรื่องสั้นของไอแซค อาซิมอฟ นักเขียนที่เปี่ยมจินตนาการในปี 2035 เทคโนโลยีและหุ่นยนต์ได้รับความไว้วางใจให้เป็นส่วนหนึ่งของชีวิตประจำวัน ในขณะที่จำนวนหุ่นยนต์ในสหรัฐฯ มีจำนวนเพิ่มขึ้นกว่าสามเท่าตัว ในการเปิดตัวของหุ่นยนต์รุ่นใหม่ล่าสุดของ U.S.Robotics-NS-5 Automated Domestic Assistant-โดยกำหนดให้มีหุ่นยนต์หนึ่งตัวต่อมนุษย์ห้าคนเป็นหุ่นยนต์ตัวแรกของรุ่นถัดไปที่ทำด้วยอัลลอยด์ที่ แกร่งเป็นพิเศษ หุ่น NS-5 ได้รับการออกแบบให้ทำงานสารพัดอย่าง ตั้งแต่เป็นพี่เลี้ยงเด็กๆทำอาหารเย็นให้ทั้งครอบครัว จนกระทั่งสรุปรายการบัญชีรายรับ-จ่าย ผลจากการจำหน่ายหุ่นรุ่น NS-5 จะยกฐานะของบริษัท U.S.Robotics ให้เป็นบริษัทที่ยิ่งใหญ่ที่สุดในประวัติศาสตร์แห่งดาวโลก

โลกในปี 2035 เชื่อว่าหุ่นยนต์จะปฏิบัติตามกฎความปลอดภัย 3 ข้อ หุ่นยนต์ไม่สามารถทำร้ายมนุษย์ หรือไม่ยอมให้มนุษย์ตกอยู่ในอันตราย หุ่นยนต์ต้องเชื่อฟังคำสั่งของมนุษย์นอกเสียจากว่าคำ สั่งนั้นขัดแย้งกับกฎข้อที่หนึ่ง หุ่นยนต์ปกป้องตนเองได้โดยไม่ขัดแย้งกับกฎข้อที่หนึ่งหรือสองเมื่อความไว้ใจที่มีต่อหุ่นยนต์ได้ถูกทำลายลงและมีชายหนุ่มเพียงคนเดียวเท่านั้น ที่ต่อต้านระบบโดยลำพัง และมองเห็นว่าอะไรจะเกิดขึ้น

Complete name : [MINI Super-HQ]_I .Robot.2004.1080p .x264.DTS.One2loadup.com.mkv
Format : Matroska
Format version : Version 4 / Version 2
File size : 4.34 GiB
Duration : 1 h 54 min
Overall bit rate : 5 417 kb/s
Movie name : [MINI Super-HQ]_I .Robot.2004.1080p .x264.DTS.One2loadup.com
Encoded date : UTC 2015-09-05 04:04:47
Writing application : mkvmerge v8.3.0 (‘Over the Horizon’) 64bit
Writing library : libebml v1.3.1 + libmatroska v1.4.2

Video
ID : 1
Format : AVC
Format/Info : Advanced Video Codec
Format profile : [email protected]
Format settings : CABAC / 16 Ref Frames
Format settings, CABAC : Yes
Format settings, ReFrames : 16 frames
Codec ID : V_MPEG4/ISO/AVC
Duration : 1 h 54 min
Bit rate : 4 201 kb/s
Width : 1 920 pixels
Height : 1 080 pixels
Display aspect ratio : 16:9
Frame rate mode : Constant
Frame rate : 23.976 (24000/1001) FPS
Color space : YUV
Chroma subsampling : 4:2:0
Bit depth : 8 bits
Scan type : Progressive
Bits/(Pixel*Frame) : 0.084
Stream size : 3.37 GiB (78%)
Title : AVC_L51
Language : English
Default : Yes
Forced : No

Audio #1
ID : 2
Format : AC-3
Format/Info : Audio Coding 3
Codec ID : A_AC3
Duration : 1 h 54 min
Bit rate mode : Constant
Bit rate : 384 kb/s
Channel(s) : 6 channels
Channel positions : Front: L C R, Side: L R, LFE
Sampling rate : 48.0 kHz
Frame rate : 31.250 FPS (1536 SPF)
Bit depth : 16 bits
Compression mode : Lossy
Delay relative to video : -200 ms
Stream size : 315 MiB (7%)
Title : Thai Dolby AC3 48KHz 6ch
Language : Thai
Service kind : Complete Main
Default : Yes
Forced : Yes

Audio #2
ID : 3
Format : DTS
Format/Info : Digital Theater Systems
Codec ID : A_DTS
Duration : 1 h 54 min
Bit rate mode : Constant
Bit rate : 755 kb/s
Channel(s) : 6 channels
Channel positions : Front: L C R, Side: L R, LFE
Sampling rate : 48.0 kHz
Frame rate : 93.750 FPS (512 SPF)
Bit depth : 24 bits
Compression mode : Lossy
Delay relative to video : -200 ms
Stream size : 619 MiB (14%)
Title : English DTS 48KHz 6ch
Language : English
Default : No
Forced : No

Text #1
ID : 4
Format : VobSub
Codec ID : S_VOBSUB
Codec ID/Info : Picture based subtitle format used on DVDs
Duration : 1 h 43 min
Bit rate : 2 338 b/s
Count of elements : 1113
Stream size : 1.73 MiB (0%)
Title : THA VOBSUB 480 – JINDARA
Language : Thai
Default : No
Forced : No

Text #2
ID : 5
Format : VobSub
Codec ID : S_VOBSUB
Codec ID/Info : Picture based subtitle format used on DVDs
Duration : 1 h 43 min
Bit rate : 9 867 b/s
Count of elements : 1113
Stream size : 7.31 MiB (0%)
Title : THA VOBSUB 1080 – JINDARA
Language : Thai
Default : No
Forced : No

Text #3
ID : 6
Format : PGS
Codec ID : S_HDMV/PGS
Codec ID/Info : Picture based subtitle format used on BDs/HD-DVDs
Duration : 1 h 43 min
Bit rate : 35.1 kb/s
Count of elements : 2226
Stream size : 26.0 MiB (1%)
Title : THA HDMV/PGS – JINDARA
Language : Thai
Default : No
Forced : No

Text #4
ID : 7
Format : PGS
Codec ID : S_HDMV/PGS
Codec ID/Info : Picture based subtitle format used on BDs/HD-DVDs
Duration : 1 h 43 min
Bit rate : 36.7 kb/s
Count of elements : 2226
Stream size : 27.2 MiB (1%)
Title : THA HDMV/PGS – HANUMAN
Language : Thai
Default : No
Forced : No

Text #5
ID : 8
Format : UTF-8
Codec ID : S_TEXT/UTF8
Codec ID/Info : UTF-8 Plain Text
Duration : 1 h 41 min
Bit rate : 59 b/s
Count of elements : 1134
Stream size : 44.0 KiB (0%)
Title : ENG SRT
Language : English
Default : No
Forced : No

DOWNLOAD


PART01 |||| PART02 |||| PART03 |||| PART04 |||| PART05

PART01 |||| PART02 |||| PART03 |||| PART04 |||| PART05

PART01 |||| PART02 |||| PART03 |||| PART04 |||| PART05

PART01 |||| PART02 |||| PART03 |||| PART04 |||| PART05


2 Comments
  1. PEE94088
    PEE94088 says

    File หนังเสียครับ
    ดูได้แต่ภาพเละ

    1. Admin
      Admin says

      เสียยังไงหว่า ก็โหลดได้ปกตินะ

Leave A Reply

Your email address will not be published.

%d bloggers like this: