[MINI Super-HQ] House of Fury (2005) 5 พยัคฆ์ ฟัดหยุดโลก [1080p] [พากย์ไทย 5.1 + เสียงจีน DTS] [บรรยายไทย + อังกฤษ] [เสียงไทย + ซับไทย] [PANDAFILE]

3

โหลดหนัง House of Fury (2005) 5 พยัคฆ์ ฟัดหยุดโลก

House of Fury | March 31, 2005 (Singapore) Summary:
Countries: Hong KongLanguages: Cantonese, English

เรื่องย่อ House of Fury (2005) 5 พยัคฆ์ ฟัดหยุดโลก

ซุยโบ (หวงซิวเซิง) อดีตสายลับรีไทร์ของรัฐบาลผู้ถูกลักพาตัวไปด้วยฝีมือ ของเพื่อนสายลับร่วมรุ่นวิธีเดียวที่จะช่วยชีวิตเขาได้คือการที่ลูกๆ (จิลเลียน ชุง และ ฝงเต๋อหลุน) และเพื่อนร่วมก๊วน (ชาร์เลน ชอย และ แดเนียล วู) ใช้วิชาที่ถูกถ่ายทอดโดยสายลับรุ่นพ่อเข้าช่วยเหลือ จากที่ไม่มีใครเคยเชื่อว่า พ่อของตนเองเป็นสายลับมากฝีมือของรัฐบาลครั้งนี้ฝีมือบู๊ที่ถูกถ่ายทอดจะกลายเป็นการเปิดเผยสู่โลกแห่งสายลับ ความจริงที่ไม่มีใครรู้ว่าแท้จริงแล้ว ในโลกนี้มีสายลับแฝงตัวอยู่ทุกหนทุกแห่ง..

Complete name : [MINI Super-HQ]_House.of.Fury.2005.×264.1080p.DTS.One2loadup.com.mkv
Format : Matroska
Format version : Version 4 / Version 2
File size : 3.57 GiB
Duration : 1 h 41 min
Overall bit rate : 5 058 kb/s
Movie name : [MINI Super-HQ]_House.of.Fury.2005.×264.1080p.DTS.One2loadup.com
Encoded date : UTC 2010-02-22 21:41:31
Writing application : mkvmerge v5.9.0 (‘On The Loose’) built on Dec 9 2012 15:37:01
Writing library : libebml v1.3.0 + libmatroska v1.4.0

Video
ID : 1
Format : AVC
Format/Info : Advanced Video Codec
Format profile : [email protected]
Format settings, CABAC : Yes
Format settings, RefFrames : 4 frames
Codec ID : V_MPEG4/ISO/AVC
Duration : 1 h 41 min
Bit rate : 3 750 kb/s
Width : 1 916 pixels
Height : 816 pixels
Display aspect ratio : 2.35:1
Frame rate mode : Constant
Frame rate : 24.000 FPS
Color space : YUV
Chroma subsampling : 4:2:0
Bit depth : 8 bits
Scan type : Progressive
Bits/(Pixel*Frame) : 0.100
Stream size : 2.69 GiB (76%)
Title : [MINI Super-HQ]_House.of.Fury.2005.×264.1080p.DTS.One2loadup.com
Writing library : x264 core 146 r2538 121396c
Encoding settings : cabac=1 / ref=5 / deblock=1:-3:-3 / analyse=0x3:0x133 / me=tesa / subme=11 / psy=1 / psy_rd=1.00:0.15 / mixed_ref=1 / me_range=32 / chroma_me=1 / trellis=2 / 8x8dct=1 / cqm=0 / deadzone=21,11 / fast_pskip=1 / chroma_qp_offset=-3 / threads=54 / lookahead_threads=4 / sliced_threads=0 / nr=0 / decimate=1 / interlaced=0 / bluray_compat=1 / constrained_intra=0 / bframes=3 / b_pyramid=1 / b_adapt=2 / b_bias=0 / direct=3 / weightb=1 / open_gop=0 / weightp=1 / keyint=250 / keyint_min=1 / scenecut=40 / intra_refresh=0 / rc_lookahead=60 / rc=2pass / mbtree=1 / bitrate=3750 / ratetol=1.0 / qcomp=0.60 / qpmin=0 / qpmax=69 / qpstep=4 / cplxblur=20.0 / qblur=0.5 / ip_ratio=1.40 / aq=1:1.30
Language : Chinese
Default : Yes
Forced : No

Audio #1
ID : 2
Format : DTS
Format/Info : Digital Theater Systems
Mode : 16
Format settings, Endianness : Big
Codec ID : A_DTS
Duration : 1 h 41 min
Bit rate mode : Constant
Bit rate : 755 kb/s
Channel(s) : 6 channels
Channel positions : Front: L C R, Side: L R, LFE
Sampling rate : 48.0 kHz
Frame rate : 93.750 FPS (512 SPF)
Bit depth : 24 bits
Compression mode : Lossy
Stream size : 545 MiB (15%)
Title : Chi DTS
Language : Chinese
Default : Yes
Forced : Yes

Audio #2
ID : 3
Format : AC-3
Format/Info : Audio Coding 3
Format settings, Endianness : Big
Codec ID : A_AC3
Duration : 1 h 41 min
Bit rate mode : Constant
Bit rate : 384 kb/s
Channel(s) : 6 channels
Channel positions : Front: L C R, Side: L R, LFE
Sampling rate : 48.0 kHz
Frame rate : 31.250 FPS (1536 SPF)
Bit depth : 16 bits
Compression mode : Lossy
Stream size : 277 MiB (8%)
Title : Thai Dolby 5.1 ch
Language : Thai
Service kind : Complete Main
Default : No
Forced : No

Text #1
ID : 4
Format : VobSub
Codec ID : S_VOBSUB
Codec ID/Info : Picture based subtitle format used on DVDs
Title : Thai Vob 480p
Language : Thai
Default : Yes
Forced : Yes

Text #2
ID : 5
Format : VobSub
Codec ID : S_VOBSUB
Codec ID/Info : Picture based subtitle format used on DVDs
Title : Thai Vob 1080p
Language : Thai
Default : No
Forced : No

Text #3
ID : 6
Format : PGS
Codec ID : S_HDMV/PGS
Codec ID/Info : Picture based subtitle format used on BDs/HD-DVDs
Title : Thai PGS In
Language : Thai
Default : No
Forced : No

Text #4
ID : 7
Format : PGS
Codec ID : S_HDMV/PGS
Codec ID/Info : Picture based subtitle format used on BDs/HD-DVDs
Title : Thai PGS In
Language : Thai
Default : No
Forced : No

Text #5
ID : 8
Format : PGS
Codec ID : S_HDMV/PGS
Codec ID/Info : Picture based subtitle format used on BDs/HD-DVDs
Title : Thai PGS Out
Language : Thai
Default : No
Forced : No

Text #6
ID : 9
Format : PGS
Codec ID : S_HDMV/PGS
Codec ID/Info : Picture based subtitle format used on BDs/HD-DVDs
Title : Thai PGS Out
Language : Thai
Default : No
Forced : No

Text #7
ID : 10
Format : PGS
Codec ID : S_HDMV/PGS
Codec ID/Info : Picture based subtitle format used on BDs/HD-DVDs
Title : Eng PGS
Language : English
Default : No
Forced : No

Text #8
ID : 11
Format : PGS
Codec ID : S_HDMV/PGS
Codec ID/Info : Picture based subtitle format used on BDs/HD-DVDs
Title : Chi PGS
Language : Chinese
Default : No
Forced : No

Text #9
ID : 12
Format : PGS
Codec ID : S_HDMV/PGS
Codec ID/Info : Picture based subtitle format used on BDs/HD-DVDs
Title : Chi PGS
Language : Chinese
Default : No
Forced : No

Menu
00:00:00.000 : zh:00:00:00.000
00:07:23.333 : zh:00:07:23.333
00:16:10.667 : zh:00:16:10.667
00:19:19.250 : zh:00:19:19.250
00:26:51.250 : zh:00:26:51.250
00:31:01.125 : zh:00:31:01.125
00:35:07.917 : zh:00:35:07.917
00:42:34.000 : zh:00:42:34.000
00:49:05.375 : zh:00:49:05.375
00:54:16.292 : zh:00:54:16.292
01:00:01.500 : zh:01:00:01.500
01:03:43.250 : zh:01:03:43.250
01:05:57.417 : zh:01:05:57.417
01:11:59.500 : zh:01:11:59.500
01:15:25.708 : zh:01:15:25.708
01:21:14.792 : zh:01:21:14.792
01:26:48.875 : zh:01:26:48.875
01:32:04.917 : zh:01:32:04.917
01:34:17.417 : zh:01:34:17.417
01:38:10.667 : zh:01:38:10.667

DOWNLOAD


PART01 |||| PART02 |||| PART03 |||| PART04

PART01 |||| PART02 |||| PART03 |||| PART04

PART01 |||| PART02 |||| PART03 |||| PART04

PART01 |||| PART02 |||| PART03 |||| PART04

PART01 |||| PART02 |||| PART03 |||| PART04


3 Comments
  1. Boydm Lion
    Boydm Lion says

    โหลดไม่ได้แล้วครับ แก้ให้หน่อยครับผม

    1. Admin
      Admin says

      แก้ไขเรียบร้อยฮ๊ะ

  2. Boydm Lion
    Boydm Lion says

    ขอบคุณครับ

Leave A Reply

อีเมล์ของคุณจะไม่แสดงให้เห็น Your email address will not be published.

%d bloggers like this: