[MINI Super-HQ] Hotel Transylvania 2 (2015) โรงแรมผี หนีไปพักร้อน ภาค 2 [1080p] [พากย์ไทย 5.1 + เสียงอังกฤษ DTS] [บรรยายไทย + อังกฤษ] [เสียงไทย + ซับไทย] [PANDAFILE]

4

โหลดหนัง Hotel Transylvania 2 (2015) โรงแรมผี หนีไปพักร้อน 2

Hotel Transylvania 2 | September 25, 2015 (United States) Summary: Dracula and his friends try to bring out the monster in his half human, half vampire grandson in order to keep Mavis from leaving the hotel.
Countries: United StatesLanguages: English

เรื่องย่อ Hotel Transylvania 2 (2015) โรงแรมผี หนีไปพักร้อน 2

เมื่อท่านเคาท์แดร็กคูล่าต้องมาหัดเลี้ยงหลานชายครึ่งคนครึ่งแวมไพร์สุดน่ารัก พร้อมกับเหล่าเพื่อนผีสุดเกรียนอย่าง แฟรงเกนสไตน์, มัมมี่, มนุษย์หมาป่า, มนุษย์ล่องหน และท่านเคาท์อาวุโสอย่างวลาด เพียบพร้อมด้วยทีมพากย์เสียงชุดเดิม ไม่ว่าจะเป็น อดัม แซนด์เลอร์, เซเลน่า โกเมซ, แอนดี้ แซมเบิร์ก, เควิน เจมส์, สตีฟ บูเซมี และรวมถึง เดวิด สเปด กำกับภาพยนตร์โดยเก็นดี้ ทาร์ทาโคฟสกี้

Complete name : [MINI Super-HQ]_Hotel.Transylvania.2.2015. 1080p.BluRay.DTS.x264.One2loadup.com.mkv
Format : Matroska
Format version : Version 4 / Version 2
File size : 4.29 GiB
Duration : 1 h 29 min
Overall bit rate mode : Variable
Overall bit rate : 6 874 kb/s
Movie name : [MINI Super-HQ]_Hotel.Transylvania.2.2015. 1080p.BluRay.DTS.x264.One2loadup.com
Encoded date : UTC 2016-01-07 17:26:26
Writing application : mkvmerge v8.7.0 (‘All of the above’) 64bit
Writing library : libebml v1.3.3 + libmatroska v1.4.4

Video
ID : 1
Format : AVC
Format/Info : Advanced Video Codec
Format profile : [email protected]
Format settings, CABAC : Yes
Format settings, RefFrames : 5 frames
Codec ID : V_MPEG4/ISO/AVC
Duration : 1 h 29 min
Bit rate mode : Variable
Bit rate : 5 400 kb/s
Maximum bit rate : 100.0 Mb/s
Width : 1 920 pixels
Height : 1 032 pixels
Display aspect ratio : 1.85:1
Frame rate mode : Constant
Frame rate : 23.976 (24000/1001) FPS
Color space : YUV
Chroma subsampling : 4:2:0
Bit depth : 8 bits
Scan type : Progressive
Bits/(Pixel*Frame) : 0.114
Stream size : 3.33 GiB (78%)
Title : [MINI Super-HQ]_Hotel.Transylvania.2.2015. 1080p.BluRay.DTS.x264.One2loadup.com
Writing library : x264 core 120 r2145M 748fe16
Encoding settings : cabac=1 / ref=5 / deblock=1:0:0 / analyse=0x3:0x133 / me=umh / subme=11 / psy=1 / psy_rd=1.00:0.15 / mixed_ref=1 / me_range=64 / chroma_me=1 / trellis=2 / 8x8dct=1 / cqm=0 / deadzone=21,11 / fast_pskip=0 / chroma_qp_offset=-3 / threads=8 / sliced_threads=0 / nr=0 / decimate=1 / interlaced=0 / bluray_compat=0 / constrained_intra=0 / bframes=5 / b_pyramid=2 / b_adapt=2 / b_bias=0 / direct=3 / weightb=1 / open_gop=0 / weightp=2 / keyint=230 / keyint_min=23 / scenecut=40 / intra_refresh=0 / rc_lookahead=120 / rc=2pass / mbtree=1 / bitrate=5400 / ratetol=1.0 / qcomp=0.60 / qpmin=0 / qpmax=69 / qpstep=4 / cplxblur=20.0 / qblur=0.5 / vbv_maxrate=99999 / vbv_bufsize=99999 / nal_hrd=vbr / ip_ratio=1.40 / aq=1:1.00
Language : English
Default : Yes
Forced : No

Audio #1
ID : 2
Format : DTS
Format/Info : Digital Theater Systems
Mode : 16
Format settings, Endianness : Big
Codec ID : A_DTS
Duration : 1 h 29 min
Bit rate mode : Constant
Bit rate : 755 kb/s
Channel(s) : 6 channels
Channel positions : Front: L C R, Side: L R, LFE
Sampling rate : 48.0 kHz
Frame rate : 93.750 FPS (512 SPF)
Bit depth : 24 bits
Compression mode : Lossy
Stream size : 482 MiB (11%)
Title : [ENGLISH DTS FROM BLU-RAY MASTER]
Language : English
Default : No
Forced : No

Audio #2
ID : 3
Format : AC-3
Format/Info : Audio Coding 3
Format settings, Endianness : Big
Codec ID : A_AC3
Duration : 1 h 29 min
Bit rate mode : Constant
Bit rate : 640 kb/s
Channel(s) : 6 channels
Channel positions : Front: L C R, Side: L R, LFE
Sampling rate : 48.0 kHz
Frame rate : 31.250 FPS (1536 SPF)
Bit depth : 16 bits
Compression mode : Lossy
Stream size : 409 MiB (9%)
Title : [THAI AC3 FROM BLU-RAY MASTER]
Language : Thai
Service kind : Complete Main
Default : Yes
Forced : No

Text #1
ID : 4
Format : VobSub
Codec ID : S_VOBSUB
Codec ID/Info : Picture based subtitle format used on DVDs
Title : [SUB THAI 480P FROM BLU-RAY]
Language : Thai
Default : No
Forced : No

Text #2
ID : 5
Format : VobSub
Codec ID : S_VOBSUB
Codec ID/Info : Picture based subtitle format used on DVDs
Title : [SUB THAI 1080P FROM BLU-RAY]
Language : Thai
Default : No
Forced : No

Text #3
ID : 6
Format : PGS
Codec ID : S_HDMV/PGS
Codec ID/Info : Picture based subtitle format used on BDs/HD-DVDs
Title : [SUB THAI PGS FROM BLU-RAY]
Language : Thai
Default : No
Forced : No

Text #4
ID : 7
Format : PGS
Codec ID : S_HDMV/PGS
Codec ID/Info : Picture based subtitle format used on BDs/HD-DVDs
Title : [SUB ENG PGS FROM BLU-RAY]
Language : English
Default : No
Forced : No

DOWNLOAD


PART01 |||| PART02 |||| PART03 |||| PART04 |||| PART05

PART01 |||| PART02 |||| PART03 |||| PART04 |||| PART05

PART01 |||| PART02 |||| PART03 |||| PART04 |||| PART05

PART01 |||| PART02 |||| PART03 |||| PART04 |||| PART05

PART01 |||| PART02 |||| PART03 |||| PART04 |||| PART05


4 Comments
  1. Kittipat Poorahong
    Kittipat Poorahong says

    ไฟล์ที่ 4 โหลดไม่ได้ครับ รบกวนแก้ไขหน่อยครับ ขอบคุณครับ

  2. Kittipat Poorahong
    Kittipat Poorahong says

    ไฟล์ที่ 4 เสียครับ รบกวนแก้ไขหน่อยครับ ขอบคุณครับ

    1. Admin
      Admin says

      แก้ไขเรียบร้อยฮ๊ะ

      1. Kittipat Poorahong
        Kittipat Poorahong says

        ขอบคุณมากๆครับ

Leave A Reply

อีเมล์ของคุณจะไม่แสดงให้เห็น Your email address will not be published.

%d bloggers like this: