[MINI Super-HQ] Hostel: Part II (2007) นรกรอชำแหละ ภาค 2 [18+] [1080p] [พากย์ไทย 5.1 + เสียงอังกฤษ DTS] [บรรยายไทย + อังกฤษ] [เสียงไทย + ซับไทย] [DOSYAUPLOAD]

0

โหลดหนัง Hostel: Part II (2007) นรกรอชำแหละ ภาค 2

Hostel: Part II | June 8, 2007 (United States) Summary: Three American college students studying abroad are lured to a Slovakian hostel and discover the grim reality behind it.
Countries: United States, Czech RepublicLanguages: English, Slovak, Italian, Czech

เรื่องย่อ Hostel: Part II (2007) นรกรอชำแหละ ภาค 2

สุดยอดหนังภาคต่อที่ภาคแรกกลายเป็นตำนานความโหดและสยองแบบสุดขั้วไปแล้ว กับหนังเรื่องนี้ Hostel Part II ซึ่งเล่าเนื้อเรื่องต่อจากภาคแรกและมาพร้อมกับกลุ่มนักท่องเที่ยวกลุ่มใหม่ ซึ่งคราวนี้เปลี่ยนเป็นบรรดาสาวๆแทน เมื่อพวกเธอได้คิดที่จะเดินทางท่องเที่ยวไปยังกรุงปราก แต่จากคำแนะนำของเพื่อนสาวคนหนึ่งที่บอกว่า กรุงปรากไม่มีอะไรน่าเที่ยวสู้ไปสโลวาเกียไม่ได้ มีทั้งสปาอบและขัดผิวดีกว่าเป็นไหนๆ ว่าแล้วพวกเธอก็ตัดสินใจเลือกที่จะไปสโลวาเกีย และที่นั่นก็คือฝันร้ายสยองขวัญของพวกเธอ เมื่อพวกเธอเลือกที่จะพักโรงแรมนรก (โรงแรมเดียวกับภาคแรก) การเข้าพักที่นั่นเนื่องจากพวกเธอเป็นชาวต่างชาติ (อเมริกัน) จำเป็นต้องให้หลักฐานสำคัญประจำตัวมอบให้กับโรงแรมเพื่อบันทึกหลักฐาน แต่ทันทีที่เจ้าหน้าที่โรงแรมได้รับพาสปอร์ตของทุกคน เขากลับสแกนใบหน้าของพวกเธอส่งไปยังองค์กร ที่เรียกกันว่า หมาล่าเนื้อ เพื่อให้ประมูลราคาค่าตัวพวกเธอ คนที่ให้ราคาสูงสุดจะได้เดินทางมายังสโลวาเกีย เพื่อมาทำการทรมานและฆ่าคนที่เขาเลือกอย่างสุดโหด หนังสยองขวัญสุดโหดที่ผู้กำกับ Eli Roth บอกว่าได้รับแรงบันดาลใจ มาจากโฆษณาชวนเชื่อในประเทศไทย ที่บ่งบอกเกี่ยวกับการเล่นสนุกของคนกลุ่มหนึ่ง ด้วยการการทรมานและการฆ่าเพื่อสนองความสะใจของตัวเอง ปัจจุบันหนังเรื่อง Hostel ได้กลายเป็นตำนานแห่งความโหดสยองไปแล้ว ใครที่อยากดูแนะนำให้ดูภาคแรกก่อนต่อด้วยภาคนี้!!

Complete name : [MINI Super-HQ]_2.Hostel.Part.II.2007.1080p.BrRip.DTS.x264.One2loadup.com.mkv
Format : Matroska
Format version : Version 4
File size : 4.23 GiB
Duration : 1 h 34 min
Overall bit rate : 6 372 kb/s
Movie name : [MINI Super-HQ]_2.Hostel.Part.II.2007.1080p.BrRip.DTS.x264.One2loadup.com
Encoded date : UTC 2015-09-10 05:11:41
Writing application : mkvmerge v7.8.0 (‘River Man’) 32bit built on Mar 27 2015 16:18:02
Writing library : libebml v1.3.1 + libmatroska v1.4.2
Cover : Yes
Attachments : cover_land.png / cover.png

Video
ID : 1
Format : AVC
Format/Info : Advanced Video Codec
Format profile : [email protected]
Format settings : CABAC / 3 Ref Frames
Format settings, CABAC : Yes
Format settings, ReFrames : 3 frames
Codec ID : V_MPEG4/ISO/AVC
Duration : 1 h 34 min
Bit rate : 5 072 kb/s
Width : 1 920 pixels
Height : 816 pixels
Display aspect ratio : 2.35:1
Frame rate mode : Constant
Frame rate : 23.976 (24000/1001) FPS
Color space : YUV
Chroma subsampling : 4:2:0
Bit depth : 8 bits
Scan type : Progressive
Bits/(Pixel*Frame) : 0.135
Stream size : 3.35 GiB (79%)
Title : [MINI Super-HQ]_2.Hostel.Part.II.2007.1080p.BrRip.DTS.x264.One2loadup.com
Writing library : x264 core 116 r2019M 9cc407d
Encoding settings : cabac=1 / ref=4 / deblock=1:-3:-3 / analyse=0x3:0x133 / me=umh / subme=10 / psy=1 / psy_rd=1.00:0.20 / mixed_ref=1 / me_range=64 / chroma_me=1 / trellis=2 / 8x8dct=1 / cqm=0 / deadzone=21,11 / fast_pskip=1 / chroma_qp_offset=-3 / threads=20 / sliced_threads=0 / nr=0 / decimate=1 / interlaced=0 / bluray_compat=0 / constrained_intra=0 / bframes=4 / b_pyramid=1 / b_adapt=2 / b_bias=0 / direct=1 / weightb=1 / open_gop=0 / weightp=2 / keyint=230 / keyint_min=23 / scenecut=40 / intra_refresh=0 / rc_lookahead=120 / rc=2pass / mbtree=1 / bitrate=5072 / ratetol=1.0 / qcomp=0.60 / qpmin=10 / qpmax=51 / qpstep=4 / cplxblur=20.0 / qblur=0.5 / vbv_maxrate=99999 / vbv_bufsize=99999 / nal_hrd=none / ip_ratio=1.40 / aq=1:1.00
Language : German
Default : Yes
Forced : No

Audio #1
ID : 2
Format : AC-3
Format/Info : Audio Coding 3
Commercial name : Dolby Digital
Codec ID : A_AC3
Duration : 1 h 34 min
Bit rate mode : Constant
Bit rate : 448 kb/s
Channel(s) : 6 channels
Channel layout : L R C LFE Ls Rs
Sampling rate : 48.0 kHz
Frame rate : 31.250 FPS (1536 SPF)
Bit depth : 16 bits
Compression mode : Lossy
Stream size : 304 MiB (7%)
Title : AC3 MIXED MASTER
Language : Thai
Service kind : Complete Main
Default : Yes
Forced : Yes

Audio #2
ID : 3
Format : DTS
Format/Info : Digital Theater Systems
Codec ID : A_DTS
Duration : 1 h 34 min
Bit rate mode : Constant
Bit rate : 755 kb/s
Channel(s) : 6 channels
Channel layout : C L R Ls Rs LFE
Sampling rate : 48.0 kHz
Frame rate : 93.750 FPS (512 SPF)
Bit depth : 24 bits
Compression mode : Lossy
Stream size : 513 MiB (12%)
Title : DTS
Language : English
Default : No
Forced : No

Text #1
ID : 4
Format : VobSub
Codec ID : S_VOBSUB
Codec ID/Info : Picture based subtitle format used on DVDs
Title : 1080P TSA
Language : Thai
Default : Yes
Forced : Yes

Text #2
ID : 5
Format : VobSub
Codec ID : S_VOBSUB
Codec ID/Info : Picture based subtitle format used on DVDs
Title : 1080P TSA YELLOW
Language : Thai
Default : No
Forced : No

Text #3
ID : 6
Format : VobSub
Codec ID : S_VOBSUB
Codec ID/Info : Picture based subtitle format used on DVDs
Title : 1080P TSA UNDER
Language : Thai
Default : No
Forced : No

Text #4
ID : 7
Format : VobSub
Codec ID : S_VOBSUB
Codec ID/Info : Picture based subtitle format used on DVDs
Title : 1080P AS
Language : Thai
Default : No
Forced : No

Text #5
ID : 8
Format : VobSub
Codec ID : S_VOBSUB
Codec ID/Info : Picture based subtitle format used on DVDs
Title : 480P DVD MASTER
Language : Thai
Default : No
Forced : No

Text #6
ID : 9
Format : UTF-8
Codec ID : S_TEXT/UTF8
Codec ID/Info : UTF-8 Plain Text
Title : SRT OCR
Language : Thai
Default : No
Forced : No

Text #7
ID : 10
Format : PGS
Codec ID : S_HDMV/PGS
Codec ID/Info : Picture based subtitle format used on BDs/HD-DVDs
Title : TSA
Language : Thai
Default : No
Forced : No

Text #8
ID : 11
Format : PGS
Codec ID : S_HDMV/PGS
Codec ID/Info : Picture based subtitle format used on BDs/HD-DVDs
Title : TSA UNDER
Language : Thai
Default : No
Forced : No

Text #9
ID : 12
Format : PGS
Codec ID : S_HDMV/PGS
Codec ID/Info : Picture based subtitle format used on BDs/HD-DVDs
Title : AS
Language : Thai
Default : No
Forced : No

Text #10
ID : 13
Format : PGS
Codec ID : S_HDMV/PGS
Codec ID/Info : Picture based subtitle format used on BDs/HD-DVDs
Title : BD MASTER
Language : English
Default : No
Forced : No

Menu
00:00:00.000 : en:00:00:00.000
00:07:22.192 : en:00:07:22.192
00:13:19.590 : en:00:13:19.590
00:16:44.754 : en:00:16:44.754
00:21:28.662 : en:00:21:28.662
00:29:11.333 : en:00:29:11.333
00:33:07.194 : en:00:33:07.194
00:37:34.919 : en:00:37:34.919
00:44:22.869 : en:00:44:22.869
00:52:28.771 : en:00:52:28.771
00:55:55.018 : en:00:55:55.018
01:04:02.422 : en:01:04:02.422
01:09:18.905 : en:01:09:18.905
01:14:21.415 : en:01:14:21.415
01:20:07.594 : en:01:20:07.594
01:26:32.396 : en:01:26:32.396

DOWNLOAD


PART01 |||| PART02 |||| PART03 |||| PART04 |||| PART05

PART01 |||| PART02 |||| PART03 |||| PART04 |||| PART05

PART01 |||| PART02 |||| PART03 |||| PART04 |||| PART05

PART01 |||| PART02 |||| PART03 |||| PART04 |||| PART05

PART01 |||| PART02 |||| PART03 |||| PART04 |||| PART05


Leave A Reply

อีเมล์ของคุณจะไม่แสดงให้เห็น Your email address will not be published.

%d bloggers like this: