[MINI Super-HQ] Homefront (2013) โคตรคนระห่ำล่าผ่าเมือง [1080p] [พากย์ไทย 5.1 + เสียงอังกฤษ DTS] [บรรยายไทย + อังกฤษ] [เสียงไทย + ซับไทย] [OPENLOAD]

0

โหลดหนัง Homefront (2013) โคตรคนระห่ำล่าผ่าเมือง

Homefront (2013) 1h 40min | Action, Thriller | 27 November 2013 (Canada) Summary: A former DEA agent moves his family to a quiet town, where he soon tangles with a local meth druglord.
Countries: USALanguages: English

เรื่องย่อ Homefront (2013) โคตรคนระห่ำล่าผ่าเมือง

เจสัน สเตแธม รับบท ฟิล โบรคเกอร์ อดีตเจ้าหน้าที่หน่วยปราบยาเสพติด ได้พาลูกสาวของเขาหลบหนีเรื่องราววุ่นวายในอดีต ไปอยู่ที่เมืองห่างจากความเจริญเมืองหนึ่ง แต่ในระยะเวลาไม่นาน โลกอันสงบสุขของโบรคเกอร์ก็ต้องล่มสลายลง เมื่อเขาพบว่าเมืองเล็กๆ แห่งนี้ ก็หนีไม่พ้นอำนาจการครอบงำของยาเสพติดและความรุนแรง ซึ่งคนที่นำสิ่งชั่วร้ายเหล่านั้นเข้ามาคือเกเตอร์ โบดินี (เจมส์ ฟรังโก) เจ้าพ่อยาเสพติดจอมโหด ผู้บีบบังคับให้โบรคเกอร์ต้องหวนคืน
สู่บทบาทที่เขาคุ้นเคยอีกครั้ง เพื่อปกป้องครอบครัวของตัวเอง และรักษาเมืองที่บริสุทธิ์ให้คงอยู่ต่อไป ด้วย 2 มือ ของเขา

Complete name : [MINI Super-HQ]_Homefront.2013.1080p.BrRip.DTS.x264.One2loadup.com.mkv
Format : Matroska
Format version : Version 2
File size : 4.37 GiB
Duration : 1 h 40 min
Overall bit rate mode : Variable
Overall bit rate : 6 225 kb/s
Movie name : [MINI Super-HQ]_Homefront.2013.1080p.BrRip.DTS.x264.One2loadup.com
Encoded date : UTC 2014-03-02 05:48:00
Writing application : mkvmerge v3.4.0 (‘Rapunzel’) built on May 15 2010 09:38:20
Writing library : libebml v0.8.0 + libmatroska v0.9.0

Video
ID : 1
Format : AVC
Format/Info : Advanced Video Codec
Format profile : [email protected]
Format settings : CABAC / 8 Ref Frames
Format settings, CABAC : Yes
Format settings, ReFrames : 8 frames
Codec ID : V_MPEG4/ISO/AVC
Duration : 1 h 40 min
Bit rate mode : Variable
Bit rate : 4 313 kb/s
Maximum bit rate : 300 Mb/s
Width : 1 920 pixels
Height : 800 pixels
Display aspect ratio : 2.40:1
Frame rate mode : Constant
Frame rate : 23.976 (24000/1001) FPS
Color space : YUV
Chroma subsampling : 4:2:0
Bit depth : 8 bits
Scan type : Progressive
Bits/(Pixel*Frame) : 0.117
Stream size : 2.96 GiB (68%)
Title : [MINI Super-HQ]_Homefront.2013.1080p.BrRip.DTS.x264.One2loadup.com
Writing library : x264 core 129 r2245 bc13772
Encoding settings : cabac=1 / ref=8 / deblock=1:0:0 / analyse=0x3:0x133 / me=umh / subme=10 / psy=1 / psy_rd=1.00:0.00 / mixed_ref=1 / me_range=24 / chroma_me=1 / trellis=2 / 8x8dct=1 / cqm=0 / deadzone=21,11 / fast_pskip=1 / chroma_qp_offset=-2 / threads=9 / lookahead_threads=1 / sliced_threads=0 / nr=0 / decimate=1 / interlaced=0 / bluray_compat=0 / constrained_intra=0 / bframes=1 / b_pyramid=0 / b_adapt=2 / b_bias=0 / direct=3 / weightb=1 / open_gop=0 / weightp=2 / keyint=240 / keyint_min=24 / scenecut=40 / intra_refresh=0 / rc_lookahead=60 / rc=2pass / mbtree=1 / bitrate=4313 / ratetol=1.0 / qcomp=0.60 / qpmin=0 / qpmax=69 / qpstep=4 / cplxblur=20.0 / qblur=0.5 / vbv_maxrate=300000 / vbv_bufsize=300000 / nal_hrd=vbr / ip_ratio=1.40 / aq=1:1.00
Language : English
Default : Yes
Forced : No

Audio #1
ID : 2
Format : AC-3
Format/Info : Audio Coding 3
Commercial name : Dolby Digital
Codec ID : A_AC3
Duration : 1 h 40 min
Bit rate mode : Constant
Bit rate : 384 kb/s
Channel(s) : 6 channels
Channel layout : L R C LFE Ls Rs
Sampling rate : 48.0 kHz
Frame rate : 31.250 FPS (1536 SPF)
Bit depth : 16 bits
Compression mode : Lossy
Stream size : 276 MiB (6%)
Title : [THAI AC3 FROM BLU-RAY MASTER]
Language : Thai
Service kind : Complete Main
Default : Yes
Forced : No

Audio #2
ID : 3
Format : DTS
Format/Info : Digital Theater Systems
Codec ID : A_DTS
Duration : 1 h 40 min
Bit rate mode : Constant
Bit rate : 1 509 kb/s
Channel(s) : 6 channels
Channel layout : C L R Ls Rs LFE
Sampling rate : 48.0 kHz
Frame rate : 93.750 FPS (512 SPF)
Bit depth : 24 bits
Compression mode : Lossy
Stream size : 1.06 GiB (24%)
Title : ENG DTS
Language : English
Default : No
Forced : No

Text #1
ID : 4
Format : VobSub
Muxing mode : zlib
Codec ID : S_VOBSUB
Codec ID/Info : Picture based subtitle format used on DVDs
Title : [SUB THAI 480P FROM BLU-RAY]
Language : Thai
Default : No
Forced : No

Text #2
ID : 5
Format : VobSub
Muxing mode : zlib
Codec ID : S_VOBSUB
Codec ID/Info : Picture based subtitle format used on DVDs
Title : [SUB THAI 1080P FROM BLU-RAY]
Language : Thai
Default : No
Forced : No

Text #3
ID : 6
Format : VobSub
Muxing mode : zlib
Codec ID : S_VOBSUB
Codec ID/Info : Picture based subtitle format used on DVDs
Title : br-master
Language : Thai
Default : No
Forced : No

Text #4
ID : 7
Format : VobSub
Muxing mode : zlib
Codec ID : S_VOBSUB
Codec ID/Info : Picture based subtitle format used on DVDs
Title : br-master
Language : Thai
Default : No
Forced : No

Text #5
ID : 8
Format : VobSub
Muxing mode : zlib
Codec ID : S_VOBSUB
Codec ID/Info : Picture based subtitle format used on DVDs
Title : br-master
Language : English
Default : No
Forced : No

DOWNLOAD


PART01 |||| PART02 |||| PART03 |||| PART04 |||| PART05

PART01 |||| PART02 |||| PART03 |||| PART04 |||| PART05

PART01 |||| PART02 |||| PART03 |||| PART04 |||| PART05

PART01 |||| PART02 |||| PART03 |||| PART04 |||| PART05


Leave A Reply

Your email address will not be published.

%d bloggers like this: