[MINI Super-HQ] Hitman: Agent 47 (2015) ฮิทแมน: สายลับ 47 ภาค 2 [1080p] [พากย์ไทย 5.1 + เสียงอังกฤษ DTS] [บรรยายไทย + อังกฤษ] [เสียงไทย + ซับไทย] [PANDAFILE]

2

โหลดหนัง Hitman: Agent 47 (2015) ฮิทแมน: สายลับ 47 ภาค 2

Hitman: Agent 47 (2015) 1h 36min | Action, Crime, Thriller | 27 August 2015 (Germany) Summary: An assassin teams up with a woman to help her find her father and uncover the mysteries of her ancestry.
Countries: USA, UK, GermanyLanguages: English

เรื่องย่อ Hitman: Agent 47 (2015) ฮิทแมน: สายลับ 47 ภาค 2

ห่างหายไป 7 ปีกลับมาอีกครั้งกับฉบับรีเมคใหม่แต่ยังคงคาแรกเตอร์ จากวิดีโอเกมอันโด่งดัง ฮิทแมน : สายลับ 47 กำกับโดย อเล็กซานเดอร์ บาค ว่าด้วย ศูนย์กลางอาชญากรตัวฉกาจ ผู้ซึ่งเปลี่ยนจินตนาการให้เป็นเครื่องมือสังหารอันร้ายกาจตัวเลขสองหลักสุดท้ายบนรอยสักรูปบาร์โค๊ตบริเวณท้ายทอยของเขาเป็นที่รู้จักกันดี กับสุดยอดนักวิจัยแห่งทศวรรตเขามีทั้งความแข็งแรง ความรวดเร็ว ความอดทนและสติปัญญาที่เฉลียวฉลาด เป้าหมายล่าสุดของเขาคือบริษัทยักษ์ใหญ่ซึ่งเขาวางแผนจะปลดล็อคความลับของ Agent 47 เพื่อสร้างกองทัพนักฆ่าที่มีพลังเหนือกว่าตัวเขาเอง เป็นการรวมกลุ่มของหญิงสาวผู้ซึ่งกุมความลับและมีพลังอำนาจที่จะสามารถเอาชนะศัตรู นับเป็นมหากาพย์การต่อสู้ครั้งใหญ่ที่กำลังจะเกิดขึ้น!!!

Complete name : [MINI Super-HQ]_Hitman.Agent.47.2015.1080p.BrRip.DTS.x264.One2loadup.com.mkv
Format : Matroska
Format version : Version 4
File size : 4.33 GiB
Duration : 1 h 36 min
Overall bit rate : 6 439 kb/s
Movie name : [MINI Super-HQ]_Hitman.Agent.47.2015.1080p.BrRip.DTS.x264.One2loadup.com
Encoded date : UTC 2020-02-06 01:30:28
Writing application : mkvmerge v40.0.0 (‘Old Town Road + Pony’) 64-bit
Writing library : libebml v1.3.9 + libmatroska v1.5.2

Video
ID : 1
Format : AVC
Format/Info : Advanced Video Codec
Format profile : [email protected]
Format settings : CABAC / 4 Ref Frames
Format settings, CABAC : Yes
Format settings, ReFrames : 4 frames
Codec ID : V_MPEG4/ISO/AVC
Duration : 1 h 36 min
Bit rate : 5 160 kb/s
Width : 1 920 pixels
Height : 800 pixels
Display aspect ratio : 2.40:1
Frame rate mode : Constant
Frame rate : 23.976 FPS
Color space : YUV
Chroma subsampling : 4:2:0
Bit depth : 8 bits
Scan type : Progressive
Bits/(Pixel*Frame) : 0.140
Stream size : 3.47 GiB (80%)
Title : [MINI Super-HQ]_Hitman.Agent.47.2015.1080p.BrRip.DTS.x264.One2loadup.com
Writing library : x264 core 146 r2538 121396c
Encoding settings : cabac=1 / ref=4 / deblock=1:-3:-3 / analyse=0x3:0x113 / me=umh / subme=11 / psy=1 / psy_rd=1.00:0.00 / mixed_ref=1 / me_range=64 / chroma_me=1 / trellis=2 / 8x8dct=1 / cqm=0 / deadzone=21,11 / fast_pskip=1 / chroma_qp_offset=-2 / threads=24 / lookahead_threads=2 / sliced_threads=0 / nr=0 / decimate=1 / interlaced=0 / bluray_compat=0 / constrained_intra=0 / bframes=4 / b_pyramid=2 / b_adapt=1 / b_bias=0 / direct=1 / weightb=1 / open_gop=0 / weightp=2 / keyint=250 / keyint_min=23 / scenecut=40 / intra_refresh=0 / rc_lookahead=120 / rc=2pass / mbtree=1 / bitrate=5160 / ratetol=1.0 / qcomp=0.60 / qpmin=0 / qpmax=69 / qpstep=4 / cplxblur=20.0 / qblur=0.5 / vbv_maxrate=99999 / vbv_bufsize=99999 / nal_hrd=none / filler=0 / ip_ratio=1.40 / aq=1:1.00
Language : English
Default : Yes
Forced : No

Audio #1
ID : 2
Format : AC-3
Format/Info : Audio Coding 3
Commercial name : Dolby Digital
Codec ID : A_AC3
Duration : 1 h 36 min
Bit rate mode : Constant
Bit rate : 448 kb/s
Channel(s) : 6 channels
Channel layout : L R C LFE Ls Rs
Sampling rate : 48.0 kHz
Frame rate : 31.250 FPS (1536 SPF)
Bit depth : 16 bits
Compression mode : Lossy
Stream size : 309 MiB (7%)
Title : Thai DVD Master
Language : Thai
Service kind : Complete Main
Default : No
Forced : No

Audio #2
ID : 3
Format : DTS
Format/Info : Digital Theater Systems
Codec ID : A_DTS
Duration : 1 h 36 min
Bit rate mode : Constant
Bit rate : 768 kb/s
Channel(s) : 6 channels
Channel layout : C L R Ls Rs LFE
Sampling rate : 48.0 kHz
Frame rate : 93.750 FPS (512 SPF)
Bit depth : 24 bits
Compression mode : Lossy
Stream size : 529 MiB (12%)
Title : English DTS
Language : English
Default : Yes
Forced : No

Text #1
ID : 4
Format : VobSub
Muxing mode : zlib
Codec ID : S_VOBSUB
Codec ID/Info : Picture based subtitle format used on DVDs
Duration : 1 h 35 min
Bit rate : 2 076 b/s
Count of elements : 869
Stream size : 1.42 MiB (0%)
Title : Thai 480p From DVD Master
Language : Thai
Default : No
Forced : No

Text #2
ID : 5
Format : VobSub
Muxing mode : zlib
Codec ID : S_VOBSUB
Codec ID/Info : Picture based subtitle format used on DVDs
Duration : 1 h 35 min
Bit rate : 3 048 b/s
Count of elements : 869
Stream size : 2.09 MiB (0%)
Title : Thai 720p
Language : Thai
Default : No
Forced : No

Text #3
ID : 6
Format : VobSub
Muxing mode : zlib
Codec ID : S_VOBSUB
Codec ID/Info : Picture based subtitle format used on DVDs
Duration : 1 h 35 min
Bit rate : 5 606 b/s
Count of elements : 869
Stream size : 3.84 MiB (0%)
Title : Thai 1080p
Language : Thai
Default : Yes
Forced : Yes

Text #4
ID : 7
Format : VobSub
Muxing mode : zlib
Codec ID : S_VOBSUB
Codec ID/Info : Picture based subtitle format used on DVDs
Duration : 1 h 35 min
Bit rate : 5 597 b/s
Count of elements : 869
Stream size : 3.84 MiB (0%)
Title : Thai 1080p Yellow
Language : Thai
Default : No
Forced : No

Text #5
ID : 8
Format : VobSub
Muxing mode : zlib
Codec ID : S_VOBSUB
Codec ID/Info : Picture based subtitle format used on DVDs
Duration : 1 h 35 min
Bit rate : 5 648 b/s
Count of elements : 869
Stream size : 3.87 MiB (0%)
Title : Thai 1080p Out
Language : Thai
Default : No
Forced : No

Text #6
ID : 9
Format : VobSub
Muxing mode : zlib
Codec ID : S_VOBSUB
Codec ID/Info : Picture based subtitle format used on DVDs
Duration : 1 h 35 min
Bit rate : 7 700 b/s
Count of elements : 869
Stream size : 5.28 MiB (0%)
Title : Thai 1080p BIG
Language : Thai
Default : No
Forced : No

Text #7
ID : 10
Format : VobSub
Muxing mode : zlib
Codec ID : S_VOBSUB
Codec ID/Info : Picture based subtitle format used on DVDs
Duration : 1 h 35 min
Bit rate : 7 750 b/s
Count of elements : 869
Stream size : 5.31 MiB (0%)
Title : Thai 1080p Out [BIG]
Language : Thai
Default : No
Forced : No

Text #8
ID : 11
Format : PGS
Muxing mode : zlib
Codec ID : S_HDMV/PGS
Codec ID/Info : Picture based subtitle format used on BDs/HD-DVDs
Duration : 1 h 35 min
Bit rate : 23.9 kb/s
Count of elements : 1740
Stream size : 16.4 MiB (0%)
Title : Thai PGS
Language : Thai
Default : No
Forced : No

Text #9
ID : 12
Format : PGS
Muxing mode : zlib
Codec ID : S_HDMV/PGS
Codec ID/Info : Picture based subtitle format used on BDs/HD-DVDs
Duration : 1 h 35 min
Bit rate : 23.9 kb/s
Count of elements : 1740
Stream size : 16.4 MiB (0%)
Title : Thai PGS Yellow
Language : Thai
Default : No
Forced : No

Text #10
ID : 13
Format : PGS
Muxing mode : zlib
Codec ID : S_HDMV/PGS
Codec ID/Info : Picture based subtitle format used on BDs/HD-DVDs
Duration : 1 h 35 min
Bit rate : 24.2 kb/s
Count of elements : 1740
Stream size : 16.6 MiB (0%)
Title : Thai PGS Out
Language : Thai
Default : No
Forced : No

Text #11
ID : 14
Format : VobSub
Muxing mode : zlib
Codec ID : S_VOBSUB
Codec ID/Info : Picture based subtitle format used on DVDs
Duration : 1 h 34 min
Bit rate : 2 367 b/s
Count of elements : 1110
Stream size : 1.60 MiB (0%)
Title : English
Language : English
Default : No
Forced : No

Text #12
ID : 15
Format : UTF-8
Codec ID : S_TEXT/UTF8
Codec ID/Info : UTF-8 Plain Text
Duration : 1 h 34 min
Bit rate : 42 b/s
Count of elements : 1109
Stream size : 29.3 KiB (0%)
Title : English
Language : English
Default : No
Forced : No

Menu
00:00:00.000 : en:00:00:00.000
00:07:11.348 : en:00:07:11.348
00:09:02.959 : en:00:09:02.959
00:13:11.582 : en:00:13:11.582
00:16:21.606 : en:00:16:21.606
00:19:22.787 : en:00:19:22.787
00:24:43.816 : en:00:24:43.816
00:27:19.179 : en:00:27:19.179
00:30:18.692 : en:00:30:18.692
00:33:03.815 : en:00:33:03.815
00:38:18.713 : en:00:38:18.713
00:43:11.756 : en:00:43:11.756
00:46:53.436 : en:00:46:53.436
00:50:39.870 : en:00:50:39.870
00:54:02.531 : en:00:54:02.531
00:59:50.587 : en:00:59:50.587
01:06:01.749 : en:01:06:01.749
01:09:06.142 : en:01:09:06.142
01:13:23.190 : en:01:13:23.190
01:16:55.319 : en:01:16:55.319
01:21:15.746 : en:01:21:15.746
01:25:20.824 : en:01:25:20.824
01:28:06.156 : en:01:28:06.156
01:31:17.847 : en:01:31:17.847

DOWNLOAD


PART01 |||| PART02 |||| PART03 |||| PART04 |||| PART05

PART01 |||| PART02 |||| PART03 |||| PART04 |||| PART05

PART01 |||| PART02 |||| PART03 |||| PART04 |||| PART05

PART01 |||| PART02 |||| PART03 |||| PART04 |||| PART05

PART01 |||| PART02 |||| PART03 |||| PART04 |||| PART05


2 Comments
  1. อานนท์ says

    โหลดไม่ได้ครับ
    รบกวนแก้ไขด้วยครับ
    ขอบคุณครับ

    1. Admin
      Admin says

      แก้ไขเรียบร้อยฮ๊ะ

Leave A Reply

Your email address will not be published.

%d bloggers like this: