[MINI Super-HQ] Hitman (2007) ฮิตแมน ภาค 1 [พากย์ไทย 5.1 + เสียงอังกฤษ 5.1] [บรรยายไทย + อังกฤษ] [เสียงไทย + ซับไทย] [PANDAFILE]

2

โหลดหนัง Hitman (2007) ฮิตแมน ภาค 1

Hitman - Jeder stirbt alleine (2007) 1h 40min | Action, Crime, Thriller | 13 December 2007 (Germany) Summary: A gun-for-hire known only as Agent 47 hired by a group known only as 'The Organization' is ensnared in a political conspiracy, which finds him pursued by both Interpol and the Russian military as he treks across Russia and Eastern Europe.
Countries: France, USALanguages: English, Russian, Serbo-Croatian

เรื่องย่อ Hitman (2007) ฮิตแมน ภาค 1

เพชฌฆาต 47 ทำงานมีประสิทธิภาพ, แม่นยำราวจับวาง , และภาคภูมิใจในผลงานทุกภารกิจเสมอมา แต่แล้ววิถีชีวิตของเพชฌฆาต 47 ที่ “ไม่เคยว่อกแว่ก” มาก่อนก็มีอันต้องหวั่นไหวเมื่อสาวรัสเซี่ยนลึกลับเข้ามารบกวนจิตใจ และสร้างความเปลี่ยนแปลงทางจิตใจอย่างที่เขาเองก็ไม่ คุ้นเคย เพชฌฆาต 47(ทิโมธี่ โอลิแฟ้นท์) บุรุษลึกลับและซับซ้อนที่กำลังเผชิญหน้ากับปรัชญาการ ดำเนินชีวิตครั้งสำคัญ เขาเกิดมาในแวดวงที่เต็มไปด้วยอาชญากรโหดระดับโลก แต่ถูกเลี้ยงดูจนเติบใหญ่ท่ามกลางความอบอุ่นของผู้เคร่งครัดในคุณงามความดีตามหลักศาสนา การมีชีวิตอยู่ของเขาเปรียบดังตราบาป แต่เขาก็พยายามลบล้างมลทินนั้นด้วยการทำสงครามหมายกำจัดโลกแห่งมารอย่างเงียบ ๆ เขาฉลาดปราดเปรื่อง , มีเสน่ห์อย่างแรง , และน่าหลงใหลเสียเหลือเกิน แต่เขาก็ไม่เคยเปิดเผยตัวตนที่แท้จริงเลย ไม่เคยแม้จะมีชื่อ และเป็นที่รู้จักกันเพียง ตัวเลขสองหลัก ที่สักเป็นรูปบาร์โค้ดอยู่ตรงท้ายทอยเท่านั้น!!!

Complete name : [MINI Super-HQ]_Hitman.2007.1080p.BrRip.AC3.x264 One2loadup.com.mkv
Format : Matroska
Format version : Version 4
File size : 4.63 GiB
Duration : 1 h 34 min
Overall bit rate : 7 029 kb/s
Movie name : [MINI Super-HQ]_Hitman.2007.1080p.BrRip.AC3.x264 One2loadup.com
Encoded date : UTC 2015-05-18 13:05:00
Writing application : mkvmerge v7.6.0 (‘Garden of Dreams’) 32bit built on Feb 8 2015 12:51:39
Writing library : libebml v1.3.1 + libmatroska v1.4.2

Video
ID : 1
Format : AVC
Format/Info : Advanced Video Codec
Format profile : [email protected]
Format settings : CABAC / 4 Ref Frames
Format settings, CABAC : Yes
Format settings, ReFrames : 4 frames
Codec ID : V_MPEG4/ISO/AVC
Duration : 1 h 34 min
Bit rate : 6 182 kb/s
Width : 1 920 pixels
Height : 824 pixels
Display aspect ratio : 2.35:1
Frame rate mode : Constant
Frame rate : 23.976 (24000/1001) FPS
Color space : YUV
Chroma subsampling : 4:2:0
Bit depth : 8 bits
Scan type : Progressive
Bits/(Pixel*Frame) : 0.163
Stream size : 4.07 GiB (88%)
Title : [MINI Super-HQ]_Hitman.2007.1080p.BrRip.AC3.x264 One2loadup.com
Writing library : x264 core 116 r2074 2641b9e
Encoding settings : cabac=1 / ref=4 / deblock=1:0:0 / analyse=0x3:0x133 / me=umh / subme=10 / psy=1 / psy_rd=1.00:0.10 / mixed_ref=1 / me_range=32 / chroma_me=1 / trellis=2 / 8x8dct=1 / cqm=0 / deadzone=21,11 / fast_pskip=0 / chroma_qp_offset=-3 / threads=12 / sliced_threads=0 / nr=0 / decimate=1 / interlaced=0 / bluray_compat=0 / constrained_intra=0 / bframes=4 / b_pyramid=2 / b_adapt=2 / b_bias=0 / direct=3 / weightb=1 / open_gop=0 / weightp=2 / keyint=240 / keyint_min=24 / scenecut=40 / intra_refresh=0 / rc_lookahead=60 / rc=2pass / mbtree=1 / bitrate=6182 / ratetol=1.0 / qcomp=0.60 / qpmin=0 / qpmax=69 / qpstep=4 / cplxblur=20.0 / qblur=0.5 / ip_ratio=1.40 / aq=1:1.00
Default : No
Forced : No

Audio #1
ID : 2
Format : AC-3
Format/Info : Audio Coding 3
Commercial name : Dolby Digital
Codec ID : A_AC3
Duration : 1 h 34 min
Bit rate mode : Constant
Bit rate : 384 kb/s
Channel(s) : 6 channels
Channel layout : L R C LFE Ls Rs
Sampling rate : 48.0 kHz
Frame rate : 31.250 FPS (1536 SPF)
Bit depth : 16 bits
Compression mode : Lossy
Stream size : 259 MiB (5%)
Title : Thai AC3 5.1 Ch @ 384 Kbps
Language : Thai
Service kind : Complete Main
Default : Yes
Forced : No

Audio #2
ID : 3
Format : AC-3
Format/Info : Audio Coding 3
Commercial name : Dolby Digital
Codec ID : A_AC3
Duration : 1 h 34 min
Bit rate mode : Constant
Bit rate : 448 kb/s
Channel(s) : 6 channels
Channel layout : L R C LFE Ls Rs
Sampling rate : 48.0 kHz
Frame rate : 31.250 FPS (1536 SPF)
Bit depth : 16 bits
Compression mode : Lossy
Stream size : 302 MiB (6%)
Title : English AC3 5.1 Ch @ 448 Kbps
Language : English
Service kind : Complete Main
Default : No
Forced : No

Text #1
ID : 4
Format : VobSub
Muxing mode : zlib
Codec ID : S_VOBSUB
Codec ID/Info : Picture based subtitle format used on DVDs
Duration : 1 h 27 min
Bit rate : 3 702 b/s
Count of elements : 747
Stream size : 2.31 MiB (0%)
Title : Thai 1080p
Language : Thai
Default : Yes
Forced : No

Text #2
ID : 5
Format : VobSub
Muxing mode : zlib
Codec ID : S_VOBSUB
Codec ID/Info : Picture based subtitle format used on DVDs
Duration : 1 h 27 min
Bit rate : 1 898 b/s
Count of elements : 747
Stream size : 1.18 MiB (0%)
Title : Thai 480p
Language : Thai
Default : No
Forced : No

Text #3
ID : 6
Format : PGS
Muxing mode : zlib
Codec ID : S_HDMV/PGS
Codec ID/Info : Picture based subtitle format used on BDs/HD-DVDs
Duration : 1 h 27 min
Bit rate : 10.0 kb/s
Count of elements : 1494
Stream size : 6.23 MiB (0%)
Title : Thai PGS
Language : Thai
Default : No
Forced : No

Text #4
ID : 7
Format : UTF-8
Codec ID : S_TEXT/UTF8
Codec ID/Info : UTF-8 Plain Text
Duration : 1 h 27 min
Bit rate : 97 b/s
Count of elements : 748
Stream size : 62.3 KiB (0%)
Title : Thai SRT
Language : Thai
Default : No
Forced : No

Text #5
ID : 8
Format : UTF-8
Codec ID : S_TEXT/UTF8
Codec ID/Info : UTF-8 Plain Text
Duration : 1 h 26 min
Bit rate : 38 b/s
Count of elements : 610
Stream size : 24.5 KiB (0%)
Title : English SRT
Language : English
Default : No
Forced : No

DOWNLOAD


PART01 |||| PART02 |||| PART03 |||| PART04 |||| PART05

PART01 |||| PART02 |||| PART03 |||| PART04 |||| PART05

PART01 |||| PART02 |||| PART03 |||| PART04 |||| PART05

PART01 |||| PART02 |||| PART03 |||| PART04 |||| PART05

PART01 |||| PART02 |||| PART03 |||| PART04 |||| PART05


2 Comments
  1. อานนท์ says

    โหลดไม่ได้ครับ
    มัน เออเร่อ
    รบกวนแก้ไขด้วยครับ
    ขอบคุณมากครับ

    1. Admin
      Admin says

      แก้ไขเรียบร้อยฮ๊ะ

Leave A Reply

Your email address will not be published.

%d bloggers like this: