[MINI Super-HQ] Greed (2019) โลภไม่แคร์โลก [1080p] [พากย์ไทย 2.0 + เสียงอังกฤษ DTS] [บรรยายไทย + อังกฤษ] [เสียงไทยมาสเตอร์ + ซับไทย] [PANDAFILE]

0

โหลดหนัง Greed (2019) โลภไม่แคร์โลก

Greed | February 21, 2020 (United Kingdom) Summary: Satire about the world of the super-rich.
Countries: United KingdomLanguages: English

เรื่องย่อ Greed (2019) โลภไม่แคร์โลก

ท่านเซอร์ริชาร์ด แม็คเครดี (สตีฟ คูแกน) หรือมหาเศรษฐีที่ใคร ๆ รู้จักในนาม กรีดี้ จอมละโมบเป็นชายผู้สร้างฐานะขึ้นมาด้วยสองมือของตนเอง เขากลายเป็นผู้ยิ่งใหญ่ของวงการค้าปลีกเสื้อผ้า เป็นดาวเด่นในแวดวงชนชั้นสูงแต่ความหยิ่งผยองนั่นเองที่ย้อนกลับมาทำร้ายเขา กรีดี้ตกเป็นข่าวใหญ่หลังจากไปให้การต่อหน้าวุฒิสภาด ้วยท่าทีโอหังเพื่อนเซเล็บหลายคนปลีกตัวออกห่าง ส่งผลให้ธุรกิจพุ่งดิ่ง เขากลายเป็นหมาหัวเน่าในชั่วข้ามคืน เพื่อไม่ให้คำครหาบานปลายไปมากกว่านี้เขาจึงจ้างทีมพีอาร์ระดับโลกมาปรับปรุงภาพลักษณ์ของเ ขา และโอกาสที่เหมาะที่สุดในการ ชุบตัว ต่อหน้าประชาคมโลกคือการจัดงานแซยิดให้ตัวเอง ณ เกาะสวรรค์แห่งหนึ่งในประเทศกรีซ โลกจะต้องเห็น (แบบถ่ายทอดสด) ว่า ริชาร์ด แม็คเครดี ยิ่งใหญ่แค่ไหนร่ำรวยแค่ไหน และใจป้ำแค่ไหน เขาจะโปรยเงินเป็นสิบ ๆ ล้าน เพื่อให้ใครต่อใคร กลับมาเคารพยำเกรงเขาอีกครั้ง!!!

Complete name : [MINI Super-HQ]_Greed.2019.1080p.BrRip.DTS.x264.THM.One2loadup.com.mkv
Format : Matroska
Format version : Version 4
File size : 3.99 GiB
Duration : 1 h 44 min
Overall bit rate : 5 468 kb/s
Movie name : [MINI Super-HQ]_Greed.2019.1080p.BrRip.DTS.x264.THM.One2loadup.com
Encoded date : UTC 2010-02-22 21:41:31
Writing application : mkvmerge v5.9.0 (‘On The Loose’) built on Dec 9 2012 15:37:01
Writing library : libebml v1.3.0 + libmatroska v1.4.0

Video
ID : 1
Format : AVC
Format/Info : Advanced Video Codec
Format profile : [email protected]
Format settings : CABAC / 4 Ref Frames
Format settings, CABAC : Yes
Format settings, ReFrames : 4 frames
Codec ID : V_MPEG4/ISO/AVC
Duration : 1 h 44 min
Bit rate : 4 041 kb/s
Width : 1 920 pixels
Height : 804 pixels
Display aspect ratio : 2.40:1
Frame rate mode : Constant
Frame rate : 23.976 (24000/1001) FPS
Color space : YUV
Chroma subsampling : 4:2:0
Bit depth : 8 bits
Scan type : Progressive
Bits/(Pixel*Frame) : 0.109
Stream size : 3.08 GiB (77%)
Title : [MINI Super-HQ]_Greed.2019.1080p.BrRip.DTS.x264.THM.One2loadup.com
Writing library : x264 core 157 r2935 545de2f
Encoding settings : cabac=1 / ref=3 / deblock=1:0:0 / analyse=0x3:0x133 / me=umh / subme=11 / psy=1 / psy_rd=1.00:0.00 / mixed_ref=1 / me_range=48 / chroma_me=1 / trellis=2 / 8x8dct=1 / cqm=0 / deadzone=21,11 / fast_pskip=1 / chroma_qp_offset=-2 / threads=12 / lookahead_threads=1 / sliced_threads=0 / nr=0 / decimate=1 / interlaced=0 / bluray_compat=0 / constrained_intra=0 / bframes=3 / b_pyramid=2 / b_adapt=1 / b_bias=0 / direct=3 / weightb=1 / open_gop=0 / weightp=2 / keyint=240 / keyint_min=24 / scenecut=40 / intra_refresh=0 / rc_lookahead=60 / rc=2pass / mbtree=1 / bitrate=4041 / ratetol=1.0 / qcomp=0.60 / qpmin=0 / qpmax=69 / qpstep=4 / cplxblur=20.0 / qblur=0.5 / vbv_maxrate=25000 / vbv_bufsize=31250 / nal_hrd=none / filler=0 / ip_ratio=1.40 / aq=1:1.00
Language : English
Default : Yes
Forced : No
Color range : Limited
Color primaries : BT.709
Transfer characteristics : BT.709
Matrix coefficients : BT.709

Audio #1
ID : 2
Format : AC-3
Format/Info : Audio Coding 3
Commercial name : Dolby Digital
Codec ID : A_AC3
Duration : 1 h 44 min
Bit rate mode : Constant
Bit rate : 384 kb/s
Channel(s) : 2 channels
Channel layout : L R
Sampling rate : 48.0 kHz
Frame rate : 31.250 FPS (1536 SPF)
Bit depth : 16 bits
Compression mode : Lossy
Stream size : 287 MiB (7%)
Title : Thai Master
Language : Thai
Service kind : Complete Main
Default : Yes
Forced : Yes

Audio #2
ID : 3
Format : DTS
Format/Info : Digital Theater Systems
Codec ID : A_DTS
Duration : 1 h 44 min
Bit rate mode : Constant
Bit rate : 755 kb/s
Channel(s) : 6 channels
Channel layout : C L R Ls Rs LFE
Sampling rate : 48.0 kHz
Frame rate : 93.750 FPS (512 SPF)
Bit depth : 24 bits
Compression mode : Lossy
Stream size : 563 MiB (14%)
Title : English DTS
Language : English
Default : No
Forced : No

Text #1
ID : 4
Format : VobSub
Codec ID : S_VOBSUB
Codec ID/Info : Picture based subtitle format used on DVDs
Title : Thai 720p
Language : Thai
Default : No
Forced : No

Text #2
ID : 5
Format : VobSub
Codec ID : S_VOBSUB
Codec ID/Info : Picture based subtitle format used on DVDs
Title : Thai 1080p
Language : Thai
Default : Yes
Forced : Yes

Text #3
ID : 6
Format : VobSub
Codec ID : S_VOBSUB
Codec ID/Info : Picture based subtitle format used on DVDs
Title : Thai 1080p Yellow
Language : Thai
Default : No
Forced : No

Text #4
ID : 7
Format : VobSub
Codec ID : S_VOBSUB
Codec ID/Info : Picture based subtitle format used on DVDs
Title : Thai 1080p BIG
Language : Thai
Default : No
Forced : No

Text #5
ID : 8
Format : VobSub
Codec ID : S_VOBSUB
Codec ID/Info : Picture based subtitle format used on DVDs
Title : Thai 1080p Out [BIG]
Language : Thai
Default : No
Forced : No

Text #6
ID : 9
Format : PGS
Codec ID : S_HDMV/PGS
Codec ID/Info : Picture based subtitle format used on BDs/HD-DVDs
Title : Thai PGS
Language : Thai
Default : No
Forced : No

Text #7
ID : 10
Format : PGS
Codec ID : S_HDMV/PGS
Codec ID/Info : Picture based subtitle format used on BDs/HD-DVDs
Title : Thai PGS Yellow
Language : Thai
Default : No
Forced : No

Text #8
ID : 11
Format : PGS
Codec ID : S_HDMV/PGS
Codec ID/Info : Picture based subtitle format used on BDs/HD-DVDs
Title : Thai PGS Out
Language : Thai
Default : No
Forced : No

Text #9
ID : 12
Format : PGS
Codec ID : S_HDMV/PGS
Codec ID/Info : Picture based subtitle format used on BDs/HD-DVDs
Title : English
Language : English
Default : No
Forced : No

Menu
00:00:00.000 : :Chapter 1
00:10:04.771 : :Chapter 2
00:20:01.992 : :Chapter 3
00:30:08.265 : :Chapter 4
00:40:03.192 : :Chapter 5
00:50:07.004 : :Chapter 6
01:00:09.147 : :Chapter 7
01:10:05.243 : :Chapter 8
01:20:04.883 : :Chapter 9
01:30:05.859 : :Chapter 10
01:37:41.022 : :Chapter 11
01:44:09.243 : :Chapter 12

DOWNLOAD


PART01 |||| PART02 |||| PART03 |||| PART04

PART01 |||| PART02 |||| PART03 |||| PART04

PART01 |||| PART02 |||| PART03 |||| PART04

PART01 |||| PART02 |||| PART03 |||| PART04

PART01 |||| PART02 |||| PART03 |||| PART04


Leave A Reply

อีเมล์ของคุณจะไม่แสดงให้เห็น Your email address will not be published.

%d bloggers like this: