[MINI Super-HQ] Gravity of Love (2018) รักแท้…แพ้แรงดึงดูด [1080p] [พากย์ไทย 5.1] [บรรยายไทย + อังกฤษ] [เสียงไทย + ซับไทย] [DOSYAUPLOAD]

0

โหลดหนัง Gravity of Love (2018) รักแท้…แพ้แรงดึงดูด

Gravity of Love (2018) 102min | Romance, Comedy | 29 November 2018 (Thailand) Summary: Add a Plot »
Countries: ThailandLanguages: Thai

เรื่องย่อ Gravity of Love (2018) รักแท้…แพ้แรงดึงดูด

‘ฟ้า’ (รับบทโดย จรินทร์พร จุนเกียรติ) ผู้หญิงที่ไร้ระเบียบแบบแผนในชีวิต ไม่เชื่อในความรักและพรหมลิขิตกำลังตามแก้เผ็ดกับเหล่าอดีตคนรักที่ ทำให้เธอผิดหวัง แต่นั่นกลับทำให้เธอได้พบกับ ‘เซน’ (รับบทโดย ปกรณ์ ฉัตรบริรักษ์) ชายหนุ่มสุดเพอเฟกต์ที่เหมือนกับชะตาถูกขีดให้ทั้งสองคนมาพบกัน เซนต้องมาคอยดูแลผู้หญิงแปลกหน้าที่เมาสุดๆ แต่ก็น่ารักสุดๆ และการได้อยู่กับฟ้าทำให้เซนได้รู้ว่าตลอดเวลาที่ผ่านมาของทั้งคู่ ทั้งสองอยู่ในสถานที่เดียวกันและเฉียดผ่านกันมาตลอด แต่ในค่ำคืนที่แสนประทับใจนั้นทั้งสองคนจากกันด้วยคำท้าว่าถ้าเราต่างเป็นพรมลิขิตกันจริงทั้งคู่จะได้เจอกันโดยที่ไม่ทิ้งการติดต่อให้กันและกันเลย จนเมื่อถึงช่วงลาพักร้อน ฟ้าวางแผนกับเพื่อนๆ ว่าจะไปเที่ยวเซนได โดยมี ‘เต้’ (รับบทโดย หลุยส์ สก๊อต) นักบินสุดหล่อเพื่อนสนิทที่แอบชอบและคอยดูแลฟ้ามาตลอด ในทริปนี้ที่เต้คิดว่าจะใช้เวลาพิชิตใจฟ้าให้ได้ ท่ามกลางแรงเชียร์ของเพื่อนๆ ที่อยากให้ฟ้าลงเอยกับเต้เสียที แต่แค่เริ่มต้นทริปก็เกิดเหตุผิดพลาดจากการจองโรงแรมผิดทำให้กรุ๊ปทัวร์ของฟ้าต้องออกตามหาที่พักกันจ้าละหวั่น ก่อนจะได้คำแนะนำจากนักเรียนไทยด้วยกันให้ไปเรียวกังที่หนึ่ง ซึ่งฟ้าก็แทบช๊อกเมื่อพบว่าเรียวกังแห่งนั้นมี ‘เซน’ เป็นเจ้าของอยู่ เมื่อชะตา ลิขิตให้ ‘เขา’ และ ‘เธอ’ ได้มาเจอกันอีกครั้ง แล้วฟ้าจะตัดสินใจอย่างไร เมื่อเกิดสงครามชิงนางระหว่าง “คนที่ฟ้าลิขิตเพื่อเธอ” กับ “คนที่ทุ่มเทเพื่อเธอ” สุดท้ายแล้วผู้หญิง (ที่ดูเหมือน) สวยเลือกได้อย่างฟ้าจะเลือกใคร หรือจะขอครองความเป็นโสดต่อไป

Complete name : [MINI Super-HQ]_Gravity.of.Love.2018.1080p.NF.WEB-DL.EAC3.x264.One2loadup.com.mkv
Format : Matroska
Format version : Version 4
File size : 4.03 GiB
Duration : 1 h 42 min
Overall bit rate : 5 619 kb/s
Movie name : [MINI Super-HQ]_Gravity.of.Love.2018.1080p.NF.WEB-DL.EAC3.x264.One2loadup.com
Encoded date : UTC 2020-07-29 11:49:11
Writing application : mkvmerge v48.0.0 (‘Fortress Around Your Heart’) 64-bit
Writing library : libebml v1.4.0 + libmatroska v1.6.0

Video
ID : 1
Format : AVC
Format/Info : Advanced Video Codec
Format profile : [email protected]
Format settings : CABAC / 3 Ref Frames
Format settings, CABAC : Yes
Format settings, Reference : 3 frames
Codec ID : V_MPEG4/ISO/AVC
Duration : 1 h 42 min
Bit rate : 4 914 kb/s
Width : 1 920 pixels
Height : 804 pixels
Display aspect ratio : 2.40:1
Frame rate mode : Constant
Frame rate : 24.000 FPS
Color space : YUV
Chroma subsampling : 4:2:0
Bit depth : 8 bits
Scan type : Progressive
Bits/(Pixel*Frame) : 0.133
Stream size : 3.53 GiB (87%)
Title : [MINI Super-HQ]_Gravity.of.Love.2018.1080p.NF.WEB-DL.EAC3.x264.One2loadup.com
Language : Thai
Default : Yes
Forced : No

Audio
ID : 2
Format : E-AC-3
Format/Info : Enhanced AC-3
Commercial name : Dolby Digital Plus
Codec ID : A_EAC3
Duration : 1 h 42 min
Bit rate mode : Constant
Bit rate : 640 kb/s
Channel(s) : 6 channels
Channel layout : L R C LFE Ls Rs
Sampling rate : 48.0 kHz
Frame rate : 31.250 FPS (1536 SPF)
Compression mode : Lossy
Stream size : 471 MiB (11%)
Title : AC-3 Thai
Language : Thai
Service kind : Complete Main
Default : Yes
Forced : No

Text #1
ID : 3
Format : VobSub
Muxing mode : zlib
Codec ID : S_VOBSUB
Codec ID/Info : Picture based subtitle format used on DVDs
Duration : 1 h 41 min
Bit rate : 11.8 kb/s
Count of elements : 1730
Stream size : 8.61 MiB (0%)
Title : Sub English 1080p
Language : English
Default : No
Forced : No

Text #2
ID : 4
Format : UTF-8
Codec ID : S_TEXT/UTF8
Codec ID/Info : UTF-8 Plain Text
Duration : 1 h 41 min
Bit rate : 60 b/s
Count of elements : 1730
Stream size : 45.4 KiB (0%)
Title : Sub English SRT
Language : English
Default : No
Forced : No

Text #3
ID : 5
Format : PGS
Muxing mode : zlib
Codec ID : S_HDMV/PGS
Codec ID/Info : Picture based subtitle format used on BDs/HD-DVDs
Duration : 1 h 41 min
Bit rate : 40.4 kb/s
Count of elements : 3460
Stream size : 29.5 MiB (1%)
Title : Sub English PGS
Language : English
Default : Yes
Forced : No

Text #4
ID : 6
Format : VobSub
Muxing mode : zlib
Codec ID : S_VOBSUB
Codec ID/Info : Picture based subtitle format used on DVDs
Duration : 1 h 42 min
Bit rate : 16.1 kb/s
Count of elements : 1909
Stream size : 11.8 MiB (0%)
Title : Sub Thai 1080p
Language : Thai
Default : No
Forced : No

Text #5
ID : 7
Format : UTF-8
Codec ID : S_TEXT/UTF8
Codec ID/Info : UTF-8 Plain Text
Duration : 1 h 42 min
Bit rate : 183 b/s
Count of elements : 1909
Stream size : 138 KiB (0%)
Title : Sub Thai SRT
Language : Thai
Default : No
Forced : No

Text #6
ID : 8
Format : PGS
Muxing mode : zlib
Codec ID : S_HDMV/PGS
Codec ID/Info : Picture based subtitle format used on BDs/HD-DVDs
Duration : 1 h 42 min
Bit rate : 53.4 kb/s
Count of elements : 3818
Stream size : 39.2 MiB (1%)
Title : Sub Thai PGS
Language : Thai
Default : No
Forced : No

DOWNLOAD


PART01 |||| PART02 |||| PART03 |||| PART04 |||| PART05

PART01 |||| PART02 |||| PART03 |||| PART04 |||| PART05

PART01 |||| PART02 |||| PART03 |||| PART04 |||| PART05

PART01 |||| PART02 |||| PART03 |||| PART04 |||| PART05

PART01 |||| PART02 |||| PART03 |||| PART04 |||| PART05


Leave A Reply

Your email address will not be published.

%d bloggers like this: