[MINI Super-HQ] Goodbye Christopher Robin (2017) แด่ คริสโตเฟอร์ โรบิน ตำนานวินนี เดอะ พูห์ [1080p] [พากย์ไทย 5.1 + เสียงอังกฤษ DTS] [บรรยายไทย + อังกฤษ] [เสียงไทย + ซับไทย] [PANDAFILE]

2

Goodbye Christopher Robin (2017) แด่ คริสโตเฟอร์ โรบิน ตำนานวินนี เดอะ พูห์

โหลดหนัง Goodbye Christopher Robin (2017) แด่ คริสโตเฟอร์ โรบิน ตำนานวินนี เดอะ พูห์ 

Goodbye Christopher Robin | September 29, 2017 (United Kingdom) Summary: The relationship between writer AA Milne and his son, Christopher Robin, and how this became the inspiration for Winnie the Pooh.
Countries: United KingdomLanguages: English

เรื่องย่อ Goodbye Christopher Robin (2017) แด่ คริสโตเฟอร์ โรบิน ตำนานวินนี เดอะ พูห์

เรื่องราวของความสัมพันธ์ระหว่าง A. A. Milne ผู้ประพันธ์เรื่องราวในดวงใจของเด็กๆ ทั่วโลก และลูกชายของเขา คริสโตเฟอร์ โรบินผู้เป็นแรงบันดาลใจสู่โลกที่เต็มไปด้วยความมหัศจรรย์ ของ วินนี่ เดอะ พูห์ กับแม่ของเขา แดฟเน่ และคุณป้าโอลีฟ คริสโตเฟอร์ โรบินและครอบครัวของเขาปรากฏอยู่ในหนังสือที่ประสบความสำเร็จไปทั่วโลก เวทมนตร์แห่งเรื่องราวที่นำเอาความหวัง และการปลอบประโลมใจมาสู่ประเทศอังกฤษหลังสงครามโลกคร ั้งที่หนึ่ง ทว่าในสายตาคริสโตเฟอร์ โรบินแล้วนั้นอะไรคือสิ่งที่ครอบครัวของเขาต้องเผชิญกัน?!!!

Complete name : [MINI Super-HQ]_Goodbye.Christopher.Robin.2017.1080p.BrRip.DTS.x264.One2loadup.com.mkv
Format : Matroska
Format version : Version 4 / Version 2
File size : 3.99 GiB
Duration : 1 h 47 min
Overall bit rate : 5 337 kb/s
Movie name : [MINI Super-HQ]_Goodbye.Christopher.Robin.2017.1080p.BrRip.DTS.x264.One2loadup.com
Encoded date : UTC 2010-02-22 21:41:31
Writing application : mkvmerge v5.9.0 (‘On The Loose’) built on Dec 9 2012 15:37:01
Writing library : libebml v1.3.0 + libmatroska v1.4.0

Video
ID : 1
Format : AVC
Format/Info : Advanced Video Codec
Format profile : [email protected]
Format settings, CABAC : Yes
Format settings, RefFrames : 4 frames
Codec ID : V_MPEG4/ISO/AVC
Duration : 1 h 47 min
Bit rate : 3 938 kb/s
Width : 1 920 pixels
Height : 1 040 pixels
Display aspect ratio : 1.85:1
Frame rate mode : Constant
Frame rate : 23.976 FPS
Color space : YUV
Chroma subsampling : 4:2:0
Bit depth : 8 bits
Scan type : Progressive
Bits/(Pixel*Frame) : 0.082
Stream size : 3.01 GiB (75%)
Title : [MINI Super-HQ]_Goodbye.Christopher.Robin.2017.1080p.BrRip.DTS.x264.One2loadup.com
Writing library : x264 core 130 r2273 b3065e6
Encoding settings : cabac=1 / ref=3 / deblock=1:0:0 / analyse=0x3:0x113 / me=umh / subme=11 / psy=1 / psy_rd=1.00:0.00 / mixed_ref=1 / me_range=48 / chroma_me=1 / trellis=2 / 8x8dct=1 / cqm=0 / deadzone=21,11 / fast_pskip=1 / chroma_qp_offset=-2 / threads=10 / lookahead_threads=1 / sliced_threads=0 / nr=0 / decimate=1 / interlaced=0 / bluray_compat=0 / constrained_intra=0 / bframes=3 / b_pyramid=2 / b_adapt=1 / b_bias=0 / direct=1 / weightb=1 / open_gop=0 / weightp=2 / keyint=240 / keyint_min=24 / scenecut=40 / intra_refresh=0 / rc_lookahead=40 / rc=2pass / mbtree=1 / bitrate=3938 / ratetol=1.0 / qcomp=0.60 / qpmin=0 / qpmax=69 / qpstep=4 / cplxblur=20.0 / qblur=0.5 / ip_ratio=1.40 / aq=1:1.00
Language : English
Default : Yes
Forced : No
Color range : Limited
Color primaries : BT.709
Transfer characteristics : BT.709
Matrix coefficients : BT.709

Audio #1
ID : 2
Format : AC-3
Format/Info : Audio Coding 3
Format settings, Endianness : Big
Codec ID : A_AC3
Duration : 1 h 47 min
Bit rate mode : Constant
Bit rate : 448 kb/s
Channel(s) : 6 channels
Channel positions : Front: L C R, Side: L R, LFE
Sampling rate : 48.0 kHz
Frame rate : 31.250 FPS (1536 SPF)
Bit depth : 16 bits
Compression mode : Lossy
Stream size : 343 MiB (8%)
Title : Thai DVD Master
Language : Thai
Service kind : Complete Main
Default : Yes
Forced : Yes

Audio #2
ID : 3
Format : DTS
Format/Info : Digital Theater Systems
Mode : 16
Format settings, Endianness : Big
Codec ID : A_DTS
Duration : 1 h 47 min
Bit rate mode : Constant
Bit rate : 755 kb/s
Channel(s) : 6 channels
Channel positions : Front: L C R, Side: L R, LFE
Sampling rate : 48.0 kHz
Frame rate : 93.750 FPS (512 SPF)
Bit depth : 24 bits
Compression mode : Lossy
Stream size : 577 MiB (14%)
Title : English DTS
Language : English
Default : No
Forced : No

Text #1
ID : 4
Format : VobSub
Codec ID : S_VOBSUB
Codec ID/Info : Picture based subtitle format used on DVDs
Language : Thai
Default : Yes
Forced : Yes

Text #2
ID : 5
Format : VobSub
Codec ID : S_VOBSUB
Codec ID/Info : Picture based subtitle format used on DVDs
Title : Thai 480p
Language : Thai
Default : No
Forced : No

Text #3
ID : 6
Format : VobSub
Codec ID : S_VOBSUB
Codec ID/Info : Picture based subtitle format used on DVDs
Title : Thai 720p
Language : Thai
Default : No
Forced : No

Text #4
ID : 7
Format : VobSub
Codec ID : S_VOBSUB
Codec ID/Info : Picture based subtitle format used on DVDs
Title : Thai 1080p
Language : Thai
Default : No
Forced : No

Text #5
ID : 8
Format : VobSub
Codec ID : S_VOBSUB
Codec ID/Info : Picture based subtitle format used on DVDs
Title : Thai 1080p Yellow
Language : Thai
Default : No
Forced : No

Text #6
ID : 9
Format : VobSub
Codec ID : S_VOBSUB
Codec ID/Info : Picture based subtitle format used on DVDs
Title : Thai 1080p BIG
Language : Thai
Default : No
Forced : No

Text #7
ID : 10
Format : PGS
Codec ID : S_HDMV/PGS
Codec ID/Info : Picture based subtitle format used on BDs/HD-DVDs
Title : Thai PGS BluRay Master
Language : Thai
Default : No
Forced : No

Text #8
ID : 11
Format : PGS
Codec ID : S_HDMV/PGS
Codec ID/Info : Picture based subtitle format used on BDs/HD-DVDs
Title : English
Language : English
Default : No
Forced : No

Text #9
ID : 12
Format : PGS
Codec ID : S_HDMV/PGS
Codec ID/Info : Picture based subtitle format used on BDs/HD-DVDs
Title : Commentary
Language : English
Default : No
Forced : No

Menu
00:00:00.000 : en:Chapter 1
00:04:03.952 : en:Chapter 2
00:07:01.171 : en:Chapter 3
00:10:32.633 : en:Chapter 4
00:13:40.529 : en:Chapter 5
00:16:48.593 : en:Chapter 6
00:20:43.411 : en:Chapter 7
00:25:44.796 : en:Chapter 8
00:30:36.755 : en:Chapter 9
00:35:25.585 : en:Chapter 10
00:40:50.744 : en:Chapter 11
00:48:22.112 : en:Chapter 12
00:52:32.738 : en:Chapter 13
00:57:53.601 : en:Chapter 14
01:03:35.818 : en:Chapter 15
01:07:38.519 : en:Chapter 16
01:12:43.866 : en:Chapter 17
01:18:55.739 : en:Chapter 18
01:21:45.617 : en:Chapter 19
01:25:16.661 : en:Chapter 20
01:29:10.437 : en:Chapter 21
01:32:27.926 : en:Chapter 22
01:35:55.926 : en:Chapter 23
01:41:03.275 : en:Chapter 24

 

DOWNLOAD


PART01 |||| PART02 |||| PART03 |||| PART04

PART01 |||| PART02 |||| PART03 |||| PART04

PART01 |||| PART02 |||| PART03 |||| PART04

PART01 |||| PART02 |||| PART03 |||| PART04

PART01 |||| PART02 |||| PART03 |||| PART04


2 Comments
  1. Mark Huss
    Mark Huss says

    สัญญลักษณ์รูปมือไม่ขึ้น .. กดดาวน์โหลดไม่ได้ครับ .. T__T

    1. Admin
      Admin says

      แก้ไขเรียบร้อยฮ๊ะ

Leave A Reply

อีเมล์ของคุณจะไม่แสดงให้เห็น Your email address will not be published.

%d bloggers like this: