[MINI Super-HQ] Godzilla :The Planet Eater (2018) ก็อดซิลล่า จอมเขมือบโลก [1080p] [NETFLIX] [พากย์ไทย 5.1 + เสียงญี่ปุ่น 5.1] [บรรยายไทย + อังกฤษ] [เสียงไทย + ซับไทย] [DOSYAUPLOAD]

0

โหลดหนัง Godzilla :The Planet Eater (2018) ก็อดซิลล่า จอมเขมือบโลก

Godzilla: The Planet Eater (2018) 91min | Animation, Action, Adventure, Sci-Fi | January 9, 2019 (United States) Summary: Humanity, their alien allies, and Godzilla all enter their endgame as the powerful destructive entity known as Ghidorah arrives on Earth.
Countries: JapanLanguages: Japanese

เรื่องย่อ Godzilla :The Planet Eater (2018) ก็อดซิลล่า จอมเขมือบโลก

ขณะที่พันธมิตรของโลกอ่อนกำลังลง ฮะรุโอะจึงชั่งใจคิดที่จะเข้าร่วมกับฝ่ายเอ็กซิฟ ซึ่งลัทธิอันตรายของฝ่ายดังกล่าวกำลังวางแผนปลุกสัตว์ประหลาดร้ายที่อาจทำลายล้างโลก!

Complete name : [MINI Super-HQ]_Godzilla.The.Planet.Eater.2018.1080p.NF.WEB-DL.EAC3.x264.One2loadup.com.mkv
Format : Matroska
Format version : Version 4
File size : 4.92 GiB
Duration : 1 h 30 min
Overall bit rate mode : Variable
Overall bit rate : 7 779 kb/s
Movie name : [MINI Super-HQ]_Godzilla.The.Planet.Eater.2018.1080p.NF.WEB-DL.EAC3.x264.One2loadup.com
Encoded date : UTC 2021-05-08 00:04:05
Writing application : mkvmerge v56.1.0 (‘My Friend’) 64-bit
Writing library : libebml v1.4.2 + libmatroska v1.6.4

Video
ID : 1
Format : AVC
Format/Info : Advanced Video Codec
Format profile : [email protected]
Format settings : CABAC / 3 Ref Frames
Format settings, CABAC : Yes
Format settings, Reference : 3 frames
Codec ID : V_MPEG4/ISO/AVC
Duration : 1 h 30 min
Bit rate mode : Variable
Bit rate : 6 810 kb/s
Maximum bit rate : 10.2 Mb/s
Width : 1 920 pixels
Height : 1 080 pixels
Display aspect ratio : 16:9
Frame rate mode : Constant
Frame rate : 24.000 FPS
Color space : YUV
Chroma subsampling : 4:2:0
Bit depth : 8 bits
Scan type : Progressive
Bits/(Pixel*Frame) : 0.137
Stream size : 4.27 GiB (87%)
Title : [MINI Super-HQ]_Godzilla.The.Planet.Eater.2018.1080p.NF.WEB-DL.EAC3.x264.One2loadup.com
Writing library : x264 core 148 r2715 7e75228
Encoding settings : cabac=1 / ref=3 / deblock=1:0:0 / analyse=0x1:0x111 / me=umh / subme=10 / psy=1 / psy_rd=1.00:0.00 / mixed_ref=1 / me_range=24 / chroma_me=1 / trellis=2 / 8x8dct=0 / cqm=0 / deadzone=21,11 / fast_pskip=1 / chroma_qp_offset=-2 / threads=8 / lookahead_threads=1 / sliced_threads=0 / nr=0 / decimate=1 / interlaced=0 / bluray_compat=0 / stitchable=1 / constrained_intra=0 / bframes=2 / b_pyramid=0 / b_adapt=2 / b_bias=0 / direct=3 / weightb=1 / open_gop=0 / weightp=2 / keyint=48 / keyint_min=25 / scenecut=0 / intra_refresh=0 / rc_lookahead=48 / rc=2pass / mbtree=1 / bitrate=6810 / ratetol=1.0 / qcomp=0.50 / qpmin=6 / qpmax=51 / qpstep=4 / cplxblur=20.0 / qblur=0.5 / vbv_maxrate=10215 / vbv_bufsize=13620 / nal_hrd=vbr / filler=0 / ip_ratio=1.40 / aq=1:1.00
Default : Yes
Forced : No

Audio #1
ID : 2
Format : E-AC-3
Format/Info : Enhanced AC-3
Commercial name : Dolby Digital Plus
Codec ID : A_EAC3
Duration : 1 h 30 min
Bit rate mode : Constant
Bit rate : 640 kb/s
Channel(s) : 6 channels
Channel layout : L R C LFE Ls Rs
Sampling rate : 48.0 kHz
Frame rate : 31.250 FPS (1536 SPF)
Compression mode : Lossy
Stream size : 414 MiB (8%)
Title : Japanese
Language : Japanese
Service kind : Complete Main
Default : No
Forced : No

Audio #2
ID : 3
Format : AC-3
Format/Info : Audio Coding 3
Commercial name : Dolby Digital
Codec ID : A_AC3
Duration : 1 h 30 min
Bit rate mode : Constant
Bit rate : 384 kb/s
Channel(s) : 6 channels
Channel layout : L R C LFE Ls Rs
Sampling rate : 48.0 kHz
Frame rate : 31.250 FPS (1536 SPF)
Compression mode : Lossy
Delay relative to video : 16 ms
Stream size : 249 MiB (5%)
Title : Thai 5.1
Language : Thai
Service kind : Complete Main
Default : Yes
Forced : Yes

Text #1
ID : 4
Format : UTF-8
Codec ID : S_TEXT/UTF8
Codec ID/Info : UTF-8 Plain Text
Duration : 1 h 29 min
Bit rate : 59 b/s
Count of elements : 990
Stream size : 39.0 KiB (0%)
Language : English
Default : No
Forced : No

Text #2
ID : 5
Format : UTF-8
Codec ID : S_TEXT/UTF8
Codec ID/Info : UTF-8 Plain Text
Duration : 1 h 29 min
Bit rate : 82 b/s
Count of elements : 995
Stream size : 54.0 KiB (0%)
Language : Arabic
Default : No
Forced : No

Text #3
ID : 6
Format : UTF-8
Codec ID : S_TEXT/UTF8
Codec ID/Info : UTF-8 Plain Text
Duration : 1 h 29 min
Bit rate : 52 b/s
Count of elements : 792
Stream size : 34.0 KiB (0%)
Language : Danish
Default : No
Forced : No

Text #4
ID : 7
Format : UTF-8
Codec ID : S_TEXT/UTF8
Codec ID/Info : UTF-8 Plain Text
Duration : 1 h 29 min
Bit rate : 60 b/s
Count of elements : 985
Stream size : 39.7 KiB (0%)
Language : German
Default : No
Forced : No

Text #5
ID : 8
Format : UTF-8
Codec ID : S_TEXT/UTF8
Codec ID/Info : UTF-8 Plain Text
Duration : 1 h 29 min
Bit rate : 101 b/s
Count of elements : 1001
Stream size : 66.5 KiB (0%)
Language : Greek
Default : No
Forced : No

Text #6
ID : 9
Format : UTF-8
Codec ID : S_TEXT/UTF8
Codec ID/Info : UTF-8 Plain Text
Duration : 1 h 29 min
Bit rate : 56 b/s
Count of elements : 985
Stream size : 37.1 KiB (0%)
Language : Spanish
Default : No
Forced : No

Text #7
ID : 10
Format : UTF-8
Codec ID : S_TEXT/UTF8
Codec ID/Info : UTF-8 Plain Text
Duration : 1 h 29 min
Bit rate : 60 b/s
Count of elements : 998
Stream size : 39.7 KiB (0%)
Title : European
Language : Spanish
Default : No
Forced : No

Text #8
ID : 11
Format : UTF-8
Codec ID : S_TEXT/UTF8
Codec ID/Info : UTF-8 Plain Text
Duration : 1 h 29 min
Bit rate : 52 b/s
Count of elements : 993
Stream size : 34.3 KiB (0%)
Language : Finnish
Default : No
Forced : No

Text #9
ID : 12
Format : UTF-8
Codec ID : S_TEXT/UTF8
Codec ID/Info : UTF-8 Plain Text
Duration : 1 h 29 min
Bit rate : 61 b/s
Count of elements : 996
Stream size : 40.2 KiB (0%)
Language : French
Default : No
Forced : No

Text #10
ID : 13
Format : UTF-8
Codec ID : S_TEXT/UTF8
Codec ID/Info : UTF-8 Plain Text
Duration : 1 h 29 min
Bit rate : 81 b/s
Count of elements : 995
Stream size : 53.4 KiB (0%)
Language : Hebrew
Default : No
Forced : No

Text #11
ID : 14
Format : UTF-8
Codec ID : S_TEXT/UTF8
Codec ID/Info : UTF-8 Plain Text
Duration : 1 h 29 min
Bit rate : 61 b/s
Count of elements : 989
Stream size : 40.1 KiB (0%)
Language : Italian
Default : No
Forced : No

Text #12
ID : 15
Format : UTF-8
Codec ID : S_TEXT/UTF8
Codec ID/Info : UTF-8 Plain Text
Duration : 1 h 29 min
Bit rate : 81 b/s
Count of elements : 1330
Stream size : 53.3 KiB (0%)
Title : SDH
Language : Japanese
Default : No
Forced : No

Text #13
ID : 16
Format : UTF-8
Codec ID : S_TEXT/UTF8
Codec ID/Info : UTF-8 Plain Text
Duration : 1 h 29 min
Bit rate : 56 b/s
Count of elements : 997
Stream size : 37.2 KiB (0%)
Language : Korean
Default : No
Forced : No

Text #14
ID : 17
Format : UTF-8
Codec ID : S_TEXT/UTF8
Codec ID/Info : UTF-8 Plain Text
Duration : 1 h 29 min
Bit rate : 53 b/s
Count of elements : 921
Stream size : 35.0 KiB (0%)
Language : Norwegian Bokmal
Default : No
Forced : No

Text #15
ID : 18
Format : UTF-8
Codec ID : S_TEXT/UTF8
Codec ID/Info : UTF-8 Plain Text
Duration : 1 h 29 min
Bit rate : 51 b/s
Count of elements : 863
Stream size : 33.5 KiB (0%)
Language : Dutch
Default : No
Forced : No

Text #16
ID : 19
Format : UTF-8
Codec ID : S_TEXT/UTF8
Codec ID/Info : UTF-8 Plain Text
Duration : 1 h 29 min
Bit rate : 52 b/s
Count of elements : 1012
Stream size : 34.6 KiB (0%)
Language : Polish
Default : No
Forced : No

Text #17
ID : 20
Format : UTF-8
Codec ID : S_TEXT/UTF8
Codec ID/Info : UTF-8 Plain Text
Duration : 1 h 29 min
Bit rate : 54 b/s
Count of elements : 943
Stream size : 35.4 KiB (0%)
Language : Portuguese
Default : No
Forced : No

Text #18
ID : 21
Format : UTF-8
Codec ID : S_TEXT/UTF8
Codec ID/Info : UTF-8 Plain Text
Duration : 1 h 29 min
Bit rate : 58 b/s
Count of elements : 961
Stream size : 38.0 KiB (0%)
Title : Brazilian
Language : Portuguese
Default : No
Forced : No

Text #19
ID : 22
Format : UTF-8
Codec ID : S_TEXT/UTF8
Codec ID/Info : UTF-8 Plain Text
Duration : 1 h 29 min
Bit rate : 58 b/s
Count of elements : 970
Stream size : 38.0 KiB (0%)
Language : Romanian
Default : No
Forced : No

Text #20
ID : 23
Format : UTF-8
Codec ID : S_TEXT/UTF8
Codec ID/Info : UTF-8 Plain Text
Duration : 1 h 29 min
Bit rate : 90 b/s
Count of elements : 1005
Stream size : 59.0 KiB (0%)
Language : Russian
Default : No
Forced : No

Text #21
ID : 24
Format : UTF-8
Codec ID : S_TEXT/UTF8
Codec ID/Info : UTF-8 Plain Text
Duration : 1 h 29 min
Bit rate : 58 b/s
Count of elements : 807
Stream size : 37.9 KiB (0%)
Language : Swedish
Default : No
Forced : No

Text #22
ID : 25
Format : UTF-8
Codec ID : S_TEXT/UTF8
Codec ID/Info : UTF-8 Plain Text
Duration : 1 h 29 min
Bit rate : 141 b/s
Count of elements : 996
Stream size : 92.6 KiB (0%)
Language : Thai
Default : No
Forced : No

Text #23
ID : 26
Format : UTF-8
Codec ID : S_TEXT/UTF8
Codec ID/Info : UTF-8 Plain Text
Duration : 1 h 29 min
Bit rate : 57 b/s
Count of elements : 946
Stream size : 37.7 KiB (0%)
Language : Turkish
Default : No
Forced : No

Text #24
ID : 27
Format : UTF-8
Codec ID : S_TEXT/UTF8
Codec ID/Info : UTF-8 Plain Text
Duration : 1 h 29 min
Bit rate : 46 b/s
Count of elements : 996
Stream size : 30.4 KiB (0%)
Title : Simplified
Language : Chinese
Default : No
Forced : No

Text #25
ID : 28
Format : UTF-8
Codec ID : S_TEXT/UTF8
Codec ID/Info : UTF-8 Plain Text
Duration : 1 h 29 min
Bit rate : 51 b/s
Count of elements : 996
Stream size : 33.8 KiB (0%)
Title : Traditional
Language : Chinese
Default : No
Forced : No

DOWNLOAD


PART01 |||| PART02 |||| PART03 |||| PART04 |||| PART05 |||| PART06

PART01 |||| PART02 |||| PART03 |||| PART04 |||| PART05 |||| PART06

PART01 |||| PART02 |||| PART03 |||| PART04 |||| PART05 |||| PART06

PART01 |||| PART02 |||| PART03 |||| PART04 |||| PART05 |||| PART06

PART01 |||| PART02 |||| PART03 |||| PART04 |||| PART05 |||| PART06


Leave A Reply

อีเมล์ของคุณจะไม่แสดงให้เห็น Your email address will not be published.

%d bloggers like this: