[MINI Super-HQ] Ghostbusters (1984) บริษัทกำจัดผี ภาค 1 [1080p] [พากย์ไทย 5.1 + เสียงอังกฤษ DTS] [บรรยายไทย + อังกฤษ] [เสียงไทย + ซับไทย] [OPENLOAD]

0

Ghostbusters (1984)

โหลดหนัง  Ghostbusters (1984) บริษัทกำจัดผี ภาค 1

Ghost Busters (1984) 1h 45min | Action, Comedy, Fantasy | 13 December 1984 (Netherlands) Summary: Three former parapsychology professors set up shop as a unique ghost removal service.
Countries: USALanguages: English

เรื่องย่อ Ghostbusters (1984) บริษัทกำจัดผี ภาค 1

นักวิทยาศาสตร์สามคน จากมหาวิทยาลัยโคลัมเบียในนิวยอร์ค ทั้งสามคนนี้ถูกไล่ออกจากงาน เมื่อเงินสนับสนุนการวิจัยของพวกเขาหมดลง ดังนั้นพวกเขาจึงตั้งบริษัทกำจัดผีขึ้น โดยให้ชื่อว่า “โกสต์บัสเตอร์” ในไม่ช้าพวกเขาก็ได้ลูกค้ารายแรกชื่อ ดานา ผู้ซึ่งต้องระเห็ดออกจากอพาร์ทเมนต์ ที่อยู่ใกล้กับเซ็นทรัล พาร์ค ด้านตะวันตก เพื่อนบ้านของเธอก็ดูเหมือนว่าจะสังเกตสิ่งผิดปกติใน อาคารได้ นั่นก็ฟังดูเหมือนว่าอาจจะเป็นผีก็ได้! แล้วกลุ่มนักกำจัดผี ก็เดินทางมาถึงพร้อมอาวุธครบมือ เพื่อทำลายผู้บุกรุก หลังจากผลงานชิ้นแรกผ่านไปด้วยดี ชื่อเสียงของพวกเขาก็กลายเป็นที่รู้จักไปทั่วเมืองนิวยอร์ค และ ทำ ให้พวกเขามีกลุ่มผู้ติดตามที่ใจจดจ่อต่อพวกเขาแต่แล้วก็มีเรื่องเข้ามาจนได้ เมื่อหน่วยงานรักษาสิ่งแวดล้อมคิดว่าพวกเขาเป็นพวกต้มตุ๋น เลยจับพวกเขาเข้าคุก แต่เมื่อมีผีตัวใหม่เข้ามาหลอกหลอนผู้คนชาวเมืองนิวยอร์ค นายกเทศมนตรีก็สั่งให้ปล่อยตัวพวกเขาออกมาเพื่อช่วยพิทักษ์เมืองทั้งเมือง จะไม่มีวันเหมือนเดิมอีกต่อไป!

Complete name : [MINI Super-HQ]_Ghostbusters.1984.1080p.BrRip.DTS.x264.One2loadup.com.mkv
Format : Matroska
Format version : Version 4
File size : 3.77 GiB
Duration : 1 h 45 min
Overall bit rate : 5 135 kb/s
Movie name : [MINI Super-HQ]_Ghostbusters.1984.1080p.BrRip.DTS.x264.One2loadup.com
Encoded date : UTC 2015-01-13 11:16:20
Writing application : mkvmerge v7.2.0 (‘On Every Street’) 64bit built on Sep 13 2014 15:52:10
Writing library : libebml v1.3.0 + libmatroska v1.4.1
Cover : Yes
Attachments : cover.png / small_cover.png / cover_land.png / small_cover_land.png

Video
ID : 1
Format : AVC
Format/Info : Advanced Video Codec
Format profile : [email protected]
Format settings : 3 Ref Frames
Format settings, CABAC : No
Format settings, ReFrames : 3 frames
Codec ID : V_MPEG4/ISO/AVC
Duration : 1 h 45 min
Bit rate : 2 999 kb/s
Width : 1 920 pixels
Height : 800 pixels
Display aspect ratio : 2.40:1
Frame rate mode : Constant
Frame rate : 23.976 (24000/1001) FPS
Color space : YUV
Chroma subsampling : 4:2:0
Bit depth : 8 bits
Scan type : Progressive
Bits/(Pixel*Frame) : 0.081
Stream size : 2.20 GiB (58%)
Title : [MINI Super-HQ]_Ghostbusters.1984.1080p.BrRip.DTS.x264.One2loadup.com
Writing library : x264 core 116 r2019M 9cc407d
Encoding settings : cabac=0 / ref=3 / deblock=1:-1:-1 / analyse=0x3:0x133 / me=umh / subme=7 / psy=1 / psy_rd=1.00:0.15 / mixed_ref=1 / me_range=16 / chroma_me=1 / trellis=1 / 8x8dct=1 / cqm=0 / deadzone=21,11 / fast_pskip=1 / chroma_qp_offset=-3 / threads=8 / sliced_threads=0 / nr=0 / decimate=1 / interlaced=0 / bluray_compat=0 / constrained_intra=0 / bframes=3 / b_pyramid=1 / b_adapt=2 / b_bias=0 / direct=3 / weightb=1 / open_gop=0 / weightp=2 / keyint=230 / keyint_min=23 / scenecut=40 / intra_refresh=0 / rc_lookahead=40 / rc=2pass / mbtree=1 / bitrate=2999 / ratetol=1.0 / qcomp=0.60 / qpmin=10 / qpmax=51 / qpstep=4 / cplxblur=20.0 / qblur=0.5 / vbv_maxrate=31250 / vbv_bufsize=62500 / nal_hrd=none / ip_ratio=1.40 / aq=1:1.00
Language : English
Default : Yes
Forced : No

Audio #1
ID : 2
Format : AC-3
Format/Info : Audio Coding 3
Commercial name : Dolby Digital
Codec ID : A_AC3
Duration : 1 h 45 min
Bit rate mode : Constant
Bit rate : 640 kb/s
Channel(s) : 6 channels
Channel layout : L R C LFE Ls Rs
Sampling rate : 48.0 kHz
Frame rate : 31.250 FPS (1536 SPF)
Bit depth : 16 bits
Compression mode : Lossy
Stream size : 481 MiB (12%)
Title : 5.1 AC3 BDMASTER
Language : Thai
Service kind : Complete Main
Default : Yes
Forced : No

Audio #2
ID : 3
Format : DTS
Format/Info : Digital Theater Systems
Codec ID : A_DTS
Duration : 1 h 45 min
Bit rate mode : Constant
Bit rate : 755 kb/s
Channel(s) : 6 channels
Channel layout : C L R Ls Rs LFE
Sampling rate : 48.0 kHz
Frame rate : 93.750 FPS (512 SPF)
Bit depth : 24 bits
Compression mode : Lossy
Stream size : 567 MiB (15%)
Title : 5.1 DTS 768
Language : English
Default : No
Forced : No

Audio #3
ID : 4
Format : AC-3
Format/Info : Audio Coding 3
Commercial name : Dolby Digital
Codec ID : A_AC3
Duration : 1 h 45 min
Bit rate mode : Constant
Bit rate : 640 kb/s
Channel(s) : 6 channels
Channel layout : L R C LFE Ls Rs
Sampling rate : 48.0 kHz
Frame rate : 31.250 FPS (1536 SPF)
Bit depth : 16 bits
Compression mode : Lossy
Stream size : 481 MiB (12%)
Title : 5.1 AC3
Language : English
Service kind : Complete Main
Default : No
Forced : No

Text #1
ID : 5
Format : VobSub
Codec ID : S_VOBSUB
Codec ID/Info : Picture based subtitle format used on DVDs
Duration : 1 h 36 min
Bit rate : 2 310 b/s
Count of elements : 1133
Stream size : 1.60 MiB (0%)
Title : 480P TSA MO
Language : Thai
Default : No
Forced : No

Text #2
ID : 6
Format : VobSub
Codec ID : S_VOBSUB
Codec ID/Info : Picture based subtitle format used on DVDs
Duration : 1 h 36 min
Bit rate : 7 805 b/s
Count of elements : 1133
Stream size : 5.40 MiB (0%)
Title : 1080P TSA MO
Language : Thai
Default : No
Forced : No

Text #3
ID : 7
Format : PGS
Codec ID : S_HDMV/PGS
Codec ID/Info : Picture based subtitle format used on BDs/HD-DVDs
Duration : 1 h 36 min
Bit rate : 30.1 kb/s
Count of elements : 2269
Stream size : 20.7 MiB (1%)
Title : BDMASTER
Language : Thai
Default : No
Forced : No

Text #4
ID : 8
Format : PGS
Codec ID : S_HDMV/PGS
Codec ID/Info : Picture based subtitle format used on BDs/HD-DVDs
Duration : 1 h 36 min
Bit rate : 33.9 kb/s
Count of elements : 2270
Stream size : 23.5 MiB (1%)
Title : TSA
Language : Thai
Default : No
Forced : No

Text #5
ID : 9
Format : PGS
Codec ID : S_HDMV/PGS
Codec ID/Info : Picture based subtitle format used on BDs/HD-DVDs
Duration : 1 h 36 min
Bit rate : 36.6 kb/s
Count of elements : 2264
Stream size : 25.2 MiB (1%)
Title : BDMASTER
Language : English
Default : No
Forced : No

DOWNLOAD


PART01 |||| PART02 |||| PART03 |||| PART04

PART01 |||| PART02 |||| PART03 |||| PART04

PART01 |||| PART02 |||| PART03 |||| PART04

PART01 |||| PART02 |||| PART03 |||| PART04


Leave A Reply

Your email address will not be published.

%d bloggers like this: