[MINI Super-HQ] Gemini Man (2019) เจมิไน แมน [1080p] [พากย์ไทย 5.1 + เสียงอังกฤษ DTS] [บรรยายไทย + อังกฤษ] [เสียงไทย + ซับไทย] [PANDAFILE]

9

โหลดหนัง Gemini Man (2019) เจมิไน แมน

Gemini Man (2019) 1h 57min | Action, Drama, Sci-Fi | 3 October 2019 (Germany) Summary: An over-the-hill hitman faces off against a younger clone of himself.
Countries: USA, ChinaLanguages: English, French

เรื่องย่อ Gemini Man (2019) เจมิไน แมน

วิล สมิธ ซึ่งรับบทเป็น เฮนรี่ โบรแกน นักฆ่าฝีมือฉกาจซึ่งกลายเป็นเป้าหมายและถูกไล่ล่าโดย เจ้าหน้าที่ปฏิบัติการลับที่สามารถคาดการณ์การเคลื่อ นไหวของเขาได้ทุกครั้ง เรื่องราวของ เฮนรี โบรแกน (Will Smith) สไนเปอร์นักฆ่าฝีมือฉกาจที่ต้องการวางมือและอยากใช้ชีวิตอย่างสงบหลังจากเกษียณ เฮนรี ถูกวานให้ฆ่าคนคนหนึ่งที่เอกสารถูกปลอมขึ้นมาเพื่อหว ังให้การฆ่าครั้งนี้เป็นเหตุผลให้เขาต้องถูกเก็บโดยมี เคลย์ เวอริส (Clive Owen) เพื่อนเก่าของเขาที่ครอบครองโปรเจกต์เจมิไน มันคือโครงการโคลนนิ่งมือสังหารที่ยกระดับคุณภาพเหนื อมนุุษย์ เฮนรี จึงถูกตามล่าโดย จูเนียร์ ซึ่งเป็นโคลนนิ่งตัวเขาเองในวัยหนุ่มมีความเก่งกาจไม่ธรรมดาและยังสามารถคาดการณ์การเคลื่อนไหวของเขาได้ทุกครั้ง จูเนียร์ ถูกโคลนนิ่งขึ้นจากดีเอ็นเอของ เฮนรี ภายใต้โครงการ เจมิไน เฮนรี ต้องเผชิญหน้ากับศัตรูที่รู้จักตัวเองดีเขาพยายามไม่ ทำร้ายนักฆ่าฝาแฝดวัยหนุ่มของตัวเองและพยายามเกลี้ยม กล่อมด้วยความจริง และยังมี แดนนี (Mary Elizabeth Winstead) สายลับสาวที่ไม่รู้นิโหน่อิเหน่ติดร่างแหมาด้วย เฮนรี ทั้งสองต้องร่วมมือกับฝ่าฝันปัญหาที่ไม่เคยเจอมาก่อน เขาจะสามารถเผชิญกับตัวตนของตัวเองในวัยหนุ่มที่พยาย ามฆ่าเขาได้อย่างไรและจะสามารถทำลายโปรเจกต์เจมิไน ที่มีผลกระทบต่อเขาเองได้หรือไม่!!!

Complete name : [MINI Super-HQ]_Gemini.Man.2019.1080p.BrRip.DTS.x264.One2loadup.com.mkv
Format : Matroska
Format version : Version 4
File size : 3.94 GiB
Duration : 1 h 57 min
Overall bit rate : 4 825 kb/s
Movie name : [MINI Super-HQ]_Gemini.Man.2019.1080p.BrRip.DTS.x264.One2loadup.com
Encoded date : UTC 2010-02-22 21:41:31
Writing application : mkvmerge v5.9.0 (‘On The Loose’) built on Dec 9 2012 15:37:01
Writing library : libebml v1.3.0 + libmatroska v1.4.0

Video
ID : 1
Format : AVC
Format/Info : Advanced Video Codec
Format profile : [email protected]
Format settings : CABAC / 4 Ref Frames
Format settings, CABAC : Yes
Format settings, ReFrames : 4 frames
Codec ID : V_MPEG4/ISO/AVC
Duration : 1 h 57 min
Bit rate : 3 351 kb/s
Width : 1 920 pixels
Height : 1 036 pixels
Display aspect ratio : 1.85:1
Frame rate mode : Constant
Frame rate : 23.976 (24000/1001) FPS
Color space : YUV
Chroma subsampling : 4:2:0
Bit depth : 8 bits
Scan type : Progressive
Bits/(Pixel*Frame) : 0.070
Stream size : 2.73 GiB (69%)
Title : [MINI Super-HQ]_Gemini.Man.2019.1080p.BrRip.DTS.x264.One2loadup.com
Writing library : x264 core 146 r2538 121396c
Encoding settings : cabac=1 / ref=5 / deblock=1:-3:-3 / analyse=0x3:0x133 / me=tesa / subme=11 / psy=1 / psy_rd=1.00:0.15 / mixed_ref=1 / me_range=48 / chroma_me=1 / trellis=2 / 8x8dct=1 / cqm=0 / deadzone=21,11 / fast_pskip=1 / chroma_qp_offset=-3 / threads=54 / lookahead_threads=4 / sliced_threads=0 / nr=0 / decimate=1 / interlaced=0 / bluray_compat=1 / constrained_intra=0 / bframes=3 / b_pyramid=1 / b_adapt=2 / b_bias=0 / direct=3 / weightb=1 / open_gop=0 / weightp=1 / keyint=250 / keyint_min=1 / scenecut=40 / intra_refresh=0 / rc_lookahead=60 / rc=2pass / mbtree=1 / bitrate=3351 / ratetol=1.0 / qcomp=0.60 / qpmin=0 / qpmax=69 / qpstep=4 / cplxblur=20.0 / qblur=0.5 / ip_ratio=1.40 / aq=1:1.30
Language : English
Default : Yes
Forced : No

Audio #1
ID : 2
Format : AC-3
Format/Info : Audio Coding 3
Commercial name : Dolby Digital
Codec ID : A_AC3
Duration : 1 h 57 min
Bit rate mode : Constant
Bit rate : 640 kb/s
Channel(s) : 6 channels
Channel layout : L R C LFE Ls Rs
Sampling rate : 48.0 kHz
Frame rate : 31.250 FPS (1536 SPF)
Bit depth : 16 bits
Compression mode : Lossy
Stream size : 536 MiB (13%)
Title : Thai BluRay Master
Language : Thai
Service kind : Complete Main
Default : Yes
Forced : Yes

Audio #2
ID : 3
Format : DTS
Format/Info : Digital Theater Systems
Codec ID : A_DTS
Duration : 1 h 57 min
Bit rate mode : Constant
Bit rate : 755 kb/s
Channel(s) : 6 channels
Channel layout : C L R Ls Rs LFE
Sampling rate : 48.0 kHz
Frame rate : 93.750 FPS (512 SPF)
Bit depth : 24 bits
Compression mode : Lossy
Stream size : 631 MiB (16%)
Title : English DTS
Language : English
Default : No
Forced : No

Text #1
ID : 4
Format : VobSub
Codec ID : S_VOBSUB
Codec ID/Info : Picture based subtitle format used on DVDs
Language : Thai
Default : Yes
Forced : Yes

Text #2
ID : 5
Format : VobSub
Codec ID : S_VOBSUB
Codec ID/Info : Picture based subtitle format used on DVDs
Title : Thai 720p
Language : Thai
Default : No
Forced : No

Text #3
ID : 6
Format : VobSub
Codec ID : S_VOBSUB
Codec ID/Info : Picture based subtitle format used on DVDs
Title : Thai 1080p
Language : Thai
Default : No
Forced : No

Text #4
ID : 7
Format : VobSub
Codec ID : S_VOBSUB
Codec ID/Info : Picture based subtitle format used on DVDs
Title : Thai 1080p Yellow
Language : Thai
Default : No
Forced : No

Text #5
ID : 8
Format : VobSub
Codec ID : S_VOBSUB
Codec ID/Info : Picture based subtitle format used on DVDs
Title : Thai 1080p BIG
Language : Thai
Default : No
Forced : No

Text #6
ID : 9
Format : PGS
Codec ID : S_HDMV/PGS
Codec ID/Info : Picture based subtitle format used on BDs/HD-DVDs
Title : Thai PGS BluRay Master
Language : Thai
Default : No
Forced : No

Text #7
ID : 10
Format : PGS
Codec ID : S_HDMV/PGS
Codec ID/Info : Picture based subtitle format used on BDs/HD-DVDs
Title : English
Language : English
Default : No
Forced : No

DOWNLOAD


PART01 |||| PART02 |||| PART03 |||| PART04

PART01 |||| PART02 |||| PART03 |||| PART04

PART01 |||| PART02 |||| PART03 |||| PART04

PART01 |||| PART02 |||| PART03 |||| PART04

PART01 |||| PART02 |||| PART03 |||| PART04


9 Comments
  1. 3 o y s c o u t z
    3 o y s c o u t z says

    โหลดไม่ได้เลย ตั้งแต่ Part3 ไป เป็นทั้ง 4 เว็บเลย

    1. Admin
      Admin says

      ทดสอบแล้วก็โหลดได้ทุกเชิฟ พึ่งลงไปมันจะเสียได้ไงหว่าๆ

  2. exhunter says

    โหลดได้ครับ แต่บางทีก็ error ต้องลองโหลดหลายรอบหน่อย

    1. Admin
      Admin says

      เราทดสอบก็ไม่เป็นไรจริงๆ อะ ไม่รู้เกิดจากอะไร

      1. Pattravut Sombut
        Pattravut Sombut says

        บางคนเขาโหลดไม่ได้ครับ แอดก็ต้องเข้าใจคนที่โหลดไม่ได้ด้วยนะครับ
        แต่ผมโหลดได้นะ จากเซิฟ Panda
        คนที่โหลดไม่ได้ ก็ลองพยายามหน่อยนะครับ ลองเปลี่ยนเซิฟดู
        เซิฟไหนโหลดไม่ได้ ก็แค่เปลี่ยนเซิฟ หรือถ้าเป็นทุกเซิฟ แอดมินก็ต้องเช็คด้วย
        อัพใหม่ซะ หรือถ้ายังไม่ได้อีก
        .
        .
        .
        .
        มึงก็ไปหาดูออนไลน์ในเว็บเถอะ ไอ้สัส!! ไอ้ควาย!!
        อุ้ย! ขอโทษครับ อินไปหน่อย

        1. Admin
          Admin says

          [เสริม]ถ้าโหลดไม่ได้เลยแนะนำให้แจ้งในคอมเม้นได้เลยจะรีบแก้ให้ฮ๊ะ หรือทักแชท facebook ไว้

  3. woodsin says

    รวมไฟล์ไม่ได้ครับ part3 มีปัญหาครับ

    1. Admin
      Admin says

      แนะนำลองโหลด part ที่มีปัญหาใหม่หรือโหลดใหม่หมดเลย ดูฮ๊ะ อาจจะมีปัญหาตอนโหลดแล้วมันสะดุดทำให้ไฟล์มีปัญหาได้ฮ๊ะ

  4. woodsin says

    ลองโหลดและติดตั้ง winrar ตัวใหม่ล่าสุดมาใช้แล้วครับ แต๋ก็ยังรวมไฟล์ไม่ได้ครับ

Disable Comments
%d bloggers like this: