[MINI Super-HQ] Five Feet Apart (2019) ขออีกฟุตให้หัวใจเราใกล้กัน [1080p] [พากย์ไทย 5.1 + เสียงอังกฤษ DTS] [บรรยายไทย + อังกฤษ] [เสียงไทย + ซับไทย] [OPENLOAD]

0

Five Feet Apart (2019)

โหลดหนัง Five Feet Apart (2019) ขออีกฟุตให้หัวใจเราใกล้กัน

Five Feet Apart (2019) 1h 56min | Drama, Romance | 13 June 2019 (Netherlands) Summary: A pair of teenagers with cystic fibrosis meet in a hospital and fall in love, though their disease means they must avoid close physical contact.
Countries: USALanguages: English

เรื่องย่อ Five Feet Apart (2019) ขออีกฟุตให้หัวใจเราใกล้กัน

จะรักกันได้อย่างไรในเมื่อเราสัมผัสกันไม่ได้? ภาพยนตร์รักเรื่องล่าสุดที่ดัดแปลงจากหนังสือรักเบสต์เซลเลอร์ Five Feet Apart ถ่ายทอดประสบการณ์ความรักของสองวัยรุ่นหนุ่มสาวที่รักกันแต่เข้าใกล้กันไม่ได้

เรื่องราวของ Five Feet Apart’ เกิดจากความรักระหว่าง สเตลลา (เฮลีย์ ลู ริชาร์ดสัน) และ วิล (โคล สเปราส์) หนุ่มสาววัย 17 ที่ตกหลุมรักกันพวกเขาจีบกันเหมือนวัยรุ่นทั่วไป แอบทำอะไรเมื่อพ้นสายตาผู้ใหญ่ แต่ความสัมพันธ์นี้เกิดขึ้นบนพื้นฐานที่ว่าพวกเขาเป็นผู้ป่วยโรคซิสติก ไฟรโบรซิสที่รักษาตัวอยู่ในโรงพยาบาลเดียวกัน โดยมีกฎสำคัญว่าพวกเขาห้ามเข้าใกล้กันกว่า 5 ฟุตโดยเด็ดขาด เมื่อความผูกพันระหว่างวิลและสเตลลาเหนียวแน่นขึ้นแต่รักครั้งนี้จะสมบูรณ์แบบได้อย่างไรในเมื่อทั้งสอง ไม่สามารถสัมผัสกันได้ วิลและสเตลลาจึงขอใช้ทุกวินาทีรวบรวมความเข้มแข็งในจิตใจของตัวเองเพื่อส่งผ่านความรักที่จะไม่มีวันยอมปล่อยให้ระยะทาง 5 ฟุต เป็นอุปสรรค!!!

นอกจากเนื้อเรื่องชวนลุ้นไปกับความรักของทั้งสองแล้วนั้น อีกหนึ่งความน่าสนใจของภาพยนตร์เรื่อง Five Feet Apart ก็คือการได้สองนักแสดงวัยรุ่นสุดฮอตแห่งยุคมาร่วมแสดงนั่นเองฝ่ายชายอย่าง โคลสเปราส์ (ฝาแฝดของหนุ่ม ดีแลน สเปราส์ ) หรือที่ใครหลายคนกำลังกรี๊ดหนักกับบท จั๊กเฮด จากซีรีส์ดัง Riverdale ส่วนฝ่ายสาว เฮลีย์ ลู ริชาร์ดสัน ก็ผ่านผลงานมาแรงอาทิ The Edge of Seventeen หรือ Columbus เรียกได้ว่าเรื่องนี้เป็นอีกผลงานการแสดงเรื่องใหม่ที่น่าจับตาของทั้งสองเลยจริงๆ

Complete name : [MINI Super-HQ]_Five.Feet.Apart.2019.1080p.BrRip.DTS.x264.One2loadup.com.mkv
Format : Matroska
Format version : Version 4
File size : 3.96 GiB
Duration : 1 h 56 min
Overall bit rate : 4 880 kb/s
Movie name : [MINI Super-HQ]_Five.Feet.Apart.2019.1080p.BrRip.DTS.x264.One2loadup.com
Encoded date : UTC 2010-02-22 21:41:31
Writing application : mkvmerge v5.9.0 (‘On The Loose’) built on Dec 9 2012 15:37:01
Writing library : libebml v1.3.0 + libmatroska v1.4.0

Video
ID : 1
Format : AVC
Format/Info : Advanced Video Codec
Format profile : [email protected]
Format settings : CABAC / 4 Ref Frames
Format settings, CABAC : Yes
Format settings, ReFrames : 4 frames
Muxing mode : Header stripping
Codec ID : V_MPEG4/ISO/AVC
Duration : 1 h 56 min
Bit rate : 3 505 kb/s
Width : 1 920 pixels
Height : 800 pixels
Display aspect ratio : 2.40:1
Frame rate mode : Constant
Frame rate : 23.976 (24000/1001) FPS
Color space : YUV
Chroma subsampling : 4:2:0
Bit depth : 8 bits
Scan type : Progressive
Bits/(Pixel*Frame) : 0.095
Stream size : 2.91 GiB (73%)
Title : [MINI Super-HQ]_Five.Feet.Apart.2019.1080p.BrRip.DTS.x264.One2loadup.com
Writing library : x264 core 157 r2935 545de2f
Encoding settings : cabac=1 / ref=3 / deblock=1:0:0 / analyse=0x3:0x133 / me=umh / subme=11 / psy=1 / psy_rd=1.00:0.00 / mixed_ref=1 / me_range=48 / chroma_me=1 / trellis=2 / 8x8dct=1 / cqm=0 / deadzone=21,11 / fast_pskip=1 / chroma_qp_offset=-2 / threads=12 / lookahead_threads=1 / sliced_threads=0 / nr=0 / decimate=1 / interlaced=0 / bluray_compat=0 / constrained_intra=0 / bframes=3 / b_pyramid=2 / b_adapt=2 / b_bias=0 / direct=3 / weightb=1 / open_gop=0 / weightp=2 / keyint=240 / keyint_min=24 / scenecut=40 / intra_refresh=0 / rc_lookahead=60 / rc=2pass / mbtree=1 / bitrate=3505 / ratetol=1.0 / qcomp=0.60 / qpmin=0 / qpmax=69 / qpstep=4 / cplxblur=20.0 / qblur=0.5 / vbv_maxrate=25000 / vbv_bufsize=31250 / nal_hrd=none / filler=0 / ip_ratio=1.40 / aq=1:1.00
Language : English
Default : Yes
Forced : No
Color range : Limited
Color primaries : BT.709
Transfer characteristics : BT.709
Matrix coefficients : BT.709

Audio #1
ID : 2
Format : AC-3
Format/Info : Audio Coding 3
Commercial name : Dolby Digital
Muxing mode : Header stripping
Codec ID : A_AC3
Duration : 1 h 56 min
Bit rate mode : Constant
Bit rate : 448 kb/s
Channel(s) : 6 channels
Channel layout : L R C LFE Ls Rs
Sampling rate : 48.0 kHz
Frame rate : 31.250 FPS (1536 SPF)
Bit depth : 16 bits
Compression mode : Lossy
Delay relative to video : -21 ms
Stream size : 373 MiB (9%)
Title : Thai DVD Master
Language : Thai
Service kind : Complete Main
Default : Yes
Forced : Yes

Audio #2
ID : 3
Format : DTS
Format/Info : Digital Theater Systems
Muxing mode : Header stripping
Codec ID : A_DTS
Duration : 1 h 56 min
Bit rate mode : Constant
Bit rate : 755 kb/s
Channel(s) : 6 channels
Channel layout : C L R Ls Rs LFE
Sampling rate : 48.0 kHz
Frame rate : 93.750 FPS (512 SPF)
Bit depth : 24 bits
Compression mode : Lossy
Delay relative to video : -21 ms
Stream size : 627 MiB (15%)
Title : English DTS
Language : English
Default : No
Forced : No

Text #1
ID : 4
Format : VobSub
Codec ID : S_VOBSUB
Codec ID/Info : Picture based subtitle format used on DVDs
Title : Thai 480p From DVD Master
Language : Thai
Default : No
Forced : No

Text #2
ID : 5
Format : VobSub
Codec ID : S_VOBSUB
Codec ID/Info : Picture based subtitle format used on DVDs
Title : Thai 720p
Language : Thai
Default : No
Forced : No

Text #3
ID : 6
Format : VobSub
Codec ID : S_VOBSUB
Codec ID/Info : Picture based subtitle format used on DVDs
Title : Thai 1080p
Language : Thai
Default : Yes
Forced : Yes

Text #4
ID : 7
Format : VobSub
Codec ID : S_VOBSUB
Codec ID/Info : Picture based subtitle format used on DVDs
Title : Thai 1080p Yellow
Language : Thai
Default : No
Forced : No

Text #5
ID : 8
Format : VobSub
Codec ID : S_VOBSUB
Codec ID/Info : Picture based subtitle format used on DVDs
Title : Thai 1080p Out
Language : Thai
Default : No
Forced : No

Text #6
ID : 9
Format : VobSub
Codec ID : S_VOBSUB
Codec ID/Info : Picture based subtitle format used on DVDs
Title : Thai 1080p BIG
Language : Thai
Default : No
Forced : No

Text #7
ID : 10
Format : VobSub
Codec ID : S_VOBSUB
Codec ID/Info : Picture based subtitle format used on DVDs
Title : Thai 1080p Out [BIG]
Language : Thai
Default : No
Forced : No

Text #8
ID : 11
Format : PGS
Codec ID : S_HDMV/PGS
Codec ID/Info : Picture based subtitle format used on BDs/HD-DVDs
Title : Thai PGS
Language : Thai
Default : No
Forced : No

Text #9
ID : 12
Format : PGS
Codec ID : S_HDMV/PGS
Codec ID/Info : Picture based subtitle format used on BDs/HD-DVDs
Title : Thai PGS Yellow
Language : Thai
Default : No
Forced : No

Text #10
ID : 13
Format : PGS
Codec ID : S_HDMV/PGS
Codec ID/Info : Picture based subtitle format used on BDs/HD-DVDs
Title : Thai PGS Out
Language : Thai
Default : No
Forced : No

Text #11
ID : 14
Format : PGS
Codec ID : S_HDMV/PGS
Codec ID/Info : Picture based subtitle format used on BDs/HD-DVDs
Title : English
Language : English
Default : No
Forced : No

Menu
00:00:00.000 : :01
00:07:17.687 : :02
00:13:52.206 : :03
00:21:20.029 : :04
00:29:33.063 : :05
00:36:43.034 : :06
00:42:55.490 : :07
00:49:26.755 : :08
00:58:30.298 : :09
01:07:03.144 : :10
01:11:37.001 : :11
01:18:55.439 : :12
01:28:41.900 : :13
01:36:52.765 : :14
01:41:37.883 : :15
01:49:11.879 : :16

DOWNLOAD


PART01 |||| PART02 |||| PART03 |||| PART04

PART01 |||| PART02 |||| PART03 |||| PART04

PART01 |||| PART02 |||| PART03 |||| PART04

PART01 |||| PART02 |||| PART03 |||| PART04


Leave A Reply

Your email address will not be published.