[MINI Super-HQ] Final Destination (2000) 7 ต้องตาย โกงความตาย ภาค 1 [1080p] [พากย์ไทย 5.1 + เสียงอังกฤษ DTS] [บรรยายไทย + อังกฤษ] [เสียงไทย + ซับไทย] [PANDAFILE]

4

โหลดหนัง Final Destination (2000) 7 ต้องตาย โกงความตาย ภาค 1

Final Destination | March 17, 2000 (United States) Summary: Alex Browning is among a group of high school students readying themselves for a trip to Europe. When he suddenly has a premonition their airplane will crash, he screams to warn the others b... Read all
Countries: United StatesLanguages: English, French

เรื่องย่อ Final Destination (2000) 7 ต้องตาย โกงความตาย ภาค 1

อเล็กซ์ บราวนิ่ง (เดว่อน ซาว่า) กำลังขึ้นเครื่องเดินทางไปปารีสเพื่อเข้าโรงเรียนไฮส คูลที่นั่น ระหว่างที่อยู่บนเครื่อง ขณะรอเทคออฟ อเล็กซ์รู้สึกถึงญาณบางอย่าง มันเป็นภาพลูกไฟดวงใหญ่ภายหลังจากเครื่องทะยานสู่ท้องฟ้าแล้ว ด้วยความตกใจเขาตะโกนให้ทุกคนออกจากเครื่องบิน ความโกลาหลทำให้เขาและคนอีกเจ็ดคนถูกไล่ให้ลงจากเครื่องบินที่ห้องพักผู้โดยสาร อเล็กซ์และเพื่อน อันประกอบด้วย บิลลี่ เคลียร์ (อาลี เลเทอร์) ชายหนุ่มที่ใส่ใจต่อคำเตือนของอเล็กซ์ โดยสัญชาติญาณ และสองคู่รักคาร์เตอร์ (เคอร์ สมิธ) กับ เทอร์รี่ (เอมา เดทเมอร์) ซึ่งตื่นเต้นตามความตระหนกของอเล็กซ์จนเกินไป จนทำให้ต้องถูกระเห็จออกจากเครื่องบินไปด้วยและคุณคร ูลิวตัน (คริสเตน โคลัก) คุณครูผู้อาสาที่จะอยู่เคียงข้างกับนักเรียนที่ถูกไล่ลงจากเครื่องได้ร่วมรับรู้ถึงชะตากรรมของเครื่องบินลำนั้นอย่างน่าสยอง สิ่งที่เกิดขึ้นเป็นจริงตามมโนภาพของอเล็กซ์อย่างน่าอัศจรรย์

Complete name : [MINI Super-HQ]_1.Final.Destination.2000.1080p.BrRip.DTS.x264.One2loadup.com.mkv
Format : Matroska
Format version : Version 4
File size : 4.19 GiB
Duration : 1 h 38 min
Overall bit rate : 6 113 kb/s
Movie name : [MINI Super-HQ]_1.Final.Destination.2000.1080p.BrRip.DTS.x264.One2loadup.com
Encoded date : UTC 2018-03-26 09:28:30
Writing application : mkvmerge v18.0.0 (‘Apricity’) 32-bit
Writing library : libebml v1.3.5 + libmatroska v1.4.8

Video
ID : 1
Format : AVC
Format/Info : Advanced Video Codec
Format profile : [email protected]
Format settings : CABAC / 4 Ref Frames
Format settings, CABAC : Yes
Format settings, ReFrames : 4 frames
Codec ID : V_MPEG4/ISO/AVC
Duration : 1 h 38 min
Bit rate : 4 698 kb/s
Width : 1 920 pixels
Height : 1 080 pixels
Display aspect ratio : 16:9
Frame rate mode : Constant
Frame rate : 23.976 (23976/1000) FPS
Color space : YUV
Chroma subsampling : 4:2:0
Bit depth : 8 bits
Scan type : Progressive
Bits/(Pixel*Frame) : 0.094
Stream size : 3.21 GiB (77%)
Title : [MINI Super-HQ]_1.Final.Destination.2000.1080p.BrRip.DTS.x264.One2loadup.com
Writing library : x264 core 146 r2538 121396c
Encoding settings : cabac=1 / ref=4 / deblock=1:-3:-3 / analyse=0x3:0x113 / me=umh / subme=11 / psy=1 / psy_rd=1.00:0.20 / mixed_ref=1 / me_range=64 / chroma_me=1 / trellis=2 / 8x8dct=1 / cqm=0 / deadzone=21,11 / fast_pskip=0 / chroma_qp_offset=-3 / threads=24 / lookahead_threads=2 / sliced_threads=0 / nr=0 / decimate=1 / interlaced=0 / bluray_compat=0 / constrained_intra=0 / bframes=4 / b_pyramid=2 / b_adapt=2 / b_bias=0 / direct=3 / weightb=1 / open_gop=0 / weightp=2 / keyint=250 / keyint_min=23 / scenecut=40 / intra_refresh=0 / rc_lookahead=120 / rc=2pass / mbtree=1 / bitrate=4698 / ratetol=1.0 / qcomp=0.60 / qpmin=0 / qpmax=69 / qpstep=4 / cplxblur=20.0 / qblur=0.5 / vbv_maxrate=50000 / vbv_bufsize=62500 / nal_hrd=none / filler=0 / ip_ratio=1.40 / aq=1:1.00
Language : English
Default : Yes
Forced : No

Audio #1
ID : 2
Format : AC-3
Format/Info : Audio Coding 3
Commercial name : Dolby Digital
Codec ID : A_AC3
Duration : 1 h 38 min
Bit rate mode : Constant
Bit rate : 640 kb/s
Channel(s) : 6 channels
Channel layout : L R C LFE Ls Rs
Sampling rate : 48.0 kHz
Frame rate : 31.250 FPS (1536 SPF)
Bit depth : 16 bits
Compression mode : Lossy
Stream size : 449 MiB (10%)
Language : Thai
Service kind : Complete Main
Default : Yes
Forced : Yes

Audio #2
ID : 3
Format : DTS
Format/Info : Digital Theater Systems
Codec ID : A_DTS
Duration : 1 h 38 min
Bit rate mode : Constant
Bit rate : 755 kb/s
Channel(s) : 6 channels
Channel layout : C L R Ls Rs LFE
Sampling rate : 48.0 kHz
Frame rate : 93.750 FPS (512 SPF)
Bit depth : 24 bits
Compression mode : Lossy
Stream size : 529 MiB (12%)
Language : English
Default : No
Forced : No

Text #1
ID : 4
Format : VobSub
Muxing mode : zlib
Codec ID : S_VOBSUB
Codec ID/Info : Picture based subtitle format used on DVDs
Duration : 1 h 31 min
Bit rate : 8 001 b/s
Count of elements : 921
Stream size : 5.21 MiB (0%)
Title : 1080P
Language : Thai
Default : Yes
Forced : Yes

Text #2
ID : 5
Format : VobSub
Muxing mode : zlib
Codec ID : S_VOBSUB
Codec ID/Info : Picture based subtitle format used on DVDs
Duration : 1 h 31 min
Bit rate : 7 994 b/s
Count of elements : 921
Stream size : 5.20 MiB (0%)
Title : 1080P YELLOW
Language : Thai
Default : No
Forced : No

Text #3
ID : 6
Format : VobSub
Muxing mode : zlib
Codec ID : S_VOBSUB
Codec ID/Info : Picture based subtitle format used on DVDs
Duration : 1 h 31 min
Bit rate : 2 193 b/s
Count of elements : 921
Stream size : 1.43 MiB (0%)
Title : 480P
Language : Thai
Default : No
Forced : No

Text #4
ID : 7
Format : UTF-8
Codec ID : S_TEXT/UTF8
Codec ID/Info : UTF-8 Plain Text
Duration : 1 h 29 min
Bit rate : 52 b/s
Count of elements : 956
Stream size : 34.1 KiB (0%)
Title : SRT
Language : English
Default : No
Forced : No

Text #5
ID : 8
Format : PGS
Muxing mode : zlib
Codec ID : S_HDMV/PGS
Codec ID/Info : Picture based subtitle format used on BDs/HD-DVDs
Duration : 1 h 31 min
Bit rate : 28.0 kb/s
Count of elements : 1844
Stream size : 18.2 MiB (0%)
Title : BD MASTER
Language : Thai
Default : No
Forced : No

DOWNLOAD


PART01 |||| PART02 |||| PART03 |||| PART04 |||| PART05

PART01 |||| PART02 |||| PART03 |||| PART04 |||| PART05

PART01 |||| PART02 |||| PART03 |||| PART04 |||| PART05

PART01 |||| PART02 |||| PART03 |||| PART04 |||| PART05

PART01 |||| PART02 |||| PART03 |||| PART04 |||| PART05


4 Comments
  1. Narabodee Oat says

    แอดช่วยอัพไฟล์ panda final destination ทุกภาคได้ไหมครับขอโทษที่รบกวนนะครับ

    1. Admin
      Admin says

      แก้ไขเรียบร้อยฮ๊ะ

  2. Oat says

    อัพ zolofile ให้ทั้ง5 ภาคหน่อยครับยังไม่ได้อัพเลยครับ รบกวนหน่อยครับ

    1. Admin
      Admin says

      แก้ไขเรียบร้อยฮ๊ะ

Leave A Reply

อีเมล์ของคุณจะไม่แสดงให้เห็น Your email address will not be published.

%d bloggers like this: