[MINI Super-HQ] F9: The Fast Saga (2021) เร็ว..แรงทะลุนรก ภาค 9 [1080p] [Director’s Cut Version] [พากย์ไทย 7.1 + เสียงอังกฤษ DTS] [บรรยายไทย + อังกฤษ] [เสียงไทย + ซับไทย] [USERLOAD]

10

โหลดหนัง Fast & Furious 9 (Fast 9) F9: The Fast Saga (2021) เร็ว..แรงทะลุนรก ภาค 9 ฟาส 9

F9: The Fast Saga (2021) 143min | Action, Adventure, Crime, Thriller | June 25, 2021 (United States) Summary: Dom and the crew must take on an international terrorist who turns out to be Dom and Mia's estranged brother.
Countries: United States, Thailand, CanadaLanguages: English

เรื่องย่อ F9: The Fast Saga (2021) เร็ว..แรงทะลุนรก ภาค 9

ดอม โดมินิค ทอเร็ตโต้ (วิน ดีเซล) ปลีกตัวออกไปใช้ชีวิตอย่างเงียบ ๆ พร้อมกับเล็ตตี้และไบรอันลูกชายตัวน้อยแต่พวกเขารู้ว่าแม้จะอยู่ในดินแดนสงบสุขก็ยังมีอันตรายอยู่คราวนี้ดอมต้องเผชิญหน้ากับตราบาปในอดีตของเขาหากเขาต้องการจะปกป้องชีวิตของคนที่เขารักมากที่สุดทีมนักซิ่งของเขากลับมารวมตัวกันอีกครั้งเพื่อหยุดการทำลายล้างโลกโดยนักฆ่าและนักซิ่งฝีมือฉกาจซึ่งเขาคือเจคอบ น้องชายของดอม (จอห์น ซีนา)!!!

Complete name : [MINI Super-HQ]_F9.The.Fast.Saga.2021.Directors.Cut.1080p.BrRip.DTS.x264.TH.7.1.One2loadup.com.mkv
Format : Matroska
Format version : Version 4
File size : 4.98 GiB
Duration : 2 h 29 min
Overall bit rate : 4 757 kb/s
Movie name : [MINI Super-HQ]_F9.The.Fast.Saga.2021.Directors.Cut.1080p.BrRip.DTS.x264.TH.7.1.One2loadup.com
Encoded date : UTC 2021-10-20 13:04:52
Writing application : mkvmerge v9.8.0 (‘Kuglblids’) 64bit
Writing library : libebml v1.3.4 + libmatroska v1.4.5

Video
ID : 1
Format : AVC
Format/Info : Advanced Video Codec
Format profile : [email protected]
Format settings : CABAC / 4 Ref Frames
Format settings, CABAC : Yes
Format settings, Reference : 4 frames
Codec ID : V_MPEG4/ISO/AVC
Duration : 2 h 29 min
Bit rate : 3 172 kb/s
Width : 1 920 pixels
Height : 804 pixels
Display aspect ratio : 2.40:1
Frame rate mode : Constant
Frame rate : 23.976 (24000/1001) FPS
Color space : YUV
Chroma subsampling : 4:2:0
Bit depth : 8 bits
Scan type : Progressive
Bits/(Pixel*Frame) : 0.086
Stream size : 3.32 GiB (67%)
Title : [MINI Super-HQ]_F9-The.Fast.Saga.2021.Directors.Cut.1080p.BrRip.DTS.x264.TH.7.1.One2loadup.com
Writing library : x264 core 146 r2538 121396c
Encoding settings : cabac=1 / ref=5 / deblock=1:-3:-3 / analyse=0x3:0x133 / me=tesa / subme=11 / psy=1 / psy_rd=1.00:0.15 / mixed_ref=1 / me_range=48 / chroma_me=1 / trellis=2 / 8x8dct=1 / cqm=0 / deadzone=21,11 / fast_pskip=1 / chroma_qp_offset=-3 / threads=54 / lookahead_threads=4 / sliced_threads=0 / nr=0 / decimate=1 / interlaced=0 / bluray_compat=1 / constrained_intra=0 / bframes=3 / b_pyramid=1 / b_adapt=2 / b_bias=0 / direct=3 / weightb=1 / open_gop=0 / weightp=1 / keyint=250 / keyint_min=1 / scenecut=40 / intra_refresh=0 / rc_lookahead=60 / rc=2pass / mbtree=1 / bitrate=3172 / ratetol=1.0 / qcomp=0.60 / qpmin=0 / qpmax=69 / qpstep=4 / cplxblur=20.0 / qblur=0.5 / ip_ratio=1.40 / aq=1:1.30
Language : English
Default : Yes
Forced : No

Audio #1
ID : 2
Format : E-AC-3
Format/Info : Enhanced AC-3
Commercial name : Dolby Digital Plus
Format profile : Blu-ray Disc
Codec ID : A_EAC3
Duration : 2 h 29 min
Bit rate mode : Constant
Bit rate : 768 kb/s
Channel(s) : 6 channels
Channel(s)_Original : 8 channels
ChannelLayout_Original : L R C LFE Ls Rs Lrs Rrs
Sampling rate : 48.0 kHz
Frame rate : 31.250 FPS (1536 SPF)
Compression mode : Lossy
Stream size : 824 MiB (16%)
Title : Thai E-AC3 7.1
Language : Thai
Service kind : Complete Main
Default : Yes
Forced : Yes

Audio #2
ID : 3
Format : DTS
Format/Info : Digital Theater Systems
Codec ID : A_DTS
Duration : 2 h 29 min
Bit rate mode : Constant
Bit rate : 755 kb/s
Channel(s) : 6 channels
Channel layout : C L R Ls Rs LFE
Sampling rate : 48.0 kHz
Frame rate : 93.750 FPS (512 SPF)
Bit depth : 24 bits
Compression mode : Lossy
Stream size : 809 MiB (16%)
Title : English DTS-5.1
Language : English
Default : No
Forced : No

Text #1
ID : 4
Format : PGS
Codec ID : S_HDMV/PGS
Codec ID/Info : Picture based subtitle format used on BDs/HD-DVDs
Duration : 2 h 29 min
Bit rate : 239 b/s
Count of elements : 12
Stream size : 263 KiB (0%)
Title : [Foreign parts only]
Language : Thai
Default : Yes
Forced : Yes

Text #2
ID : 5
Format : PGS
Codec ID : S_HDMV/PGS
Codec ID/Info : Picture based subtitle format used on BDs/HD-DVDs
Duration : 2 h 28 min
Bit rate : 17.0 kb/s
Count of elements : 2975
Stream size : 18.1 MiB (0%)
Title : Thai PGS BluRay Master
Language : Thai
Default : No
Forced : No

Text #3
ID : 6
Format : VobSub
Codec ID : S_VOBSUB
Codec ID/Info : Picture based subtitle format used on DVDs
Duration : 2 h 28 min
Bit rate : 4 182 b/s
Count of elements : 1486
Stream size : 4.46 MiB (0%)
Title : Thai 1080p
Language : Thai
Default : No
Forced : No

Text #4
ID : 7
Format : VobSub
Codec ID : S_VOBSUB
Codec ID/Info : Picture based subtitle format used on DVDs
Duration : 2 h 28 min
Bit rate : 5 817 b/s
Count of elements : 1486
Stream size : 6.20 MiB (0%)
Title : Thai 1080p Big [Yellow]
Language : Thai
Default : No
Forced : No

Text #5
ID : 8
Format : PGS
Codec ID : S_HDMV/PGS
Codec ID/Info : Picture based subtitle format used on BDs/HD-DVDs
Duration : 2 h 23 min
Bit rate : 37.5 kb/s
Count of elements : 4081
Stream size : 38.4 MiB (1%)
Title : English PGS BluRay Master
Language : English
Default : No
Forced : No

Menu
00:00:00.000 : en:00:00:00.000
00:04:47.746 : en:00:04:47.746
00:12:27.914 : en:00:12:27.914
00:21:53.270 : en:00:21:53.270
00:26:43.268 : en:00:26:43.268
00:31:43.568 : en:00:31:43.568
00:35:36.718 : en:00:35:36.718
00:45:33.773 : en:00:45:33.773
00:53:42.761 : en:00:53:42.761
01:01:12.669 : en:01:01:12.669
01:05:24.295 : en:01:05:24.295
01:13:55.472 : en:01:13:55.472
01:25:26.121 : en:01:25:26.121
01:35:27.805 : en:01:35:27.805
01:41:34.129 : en:01:41:34.129
01:47:08.380 : en:01:47:08.380
01:57:42.472 : en:01:57:42.472
02:08:02.091 : en:02:08:02.091
02:12:25.479 : en:02:12:25.479
02:17:20.941 : en:02:17:20.941

DOWNLOAD


PART01 |||| PART02 |||| PART03 |||| PART04 |||| PART05 |||| PART06

PART01 |||| PART02 |||| PART03 |||| PART04 |||| PART05 |||| PART06

PART01 |||| PART02 |||| PART03 |||| PART04 |||| PART05 |||| PART06

PART01 |||| PART02 |||| PART03 |||| PART04 |||| PART05 |||| PART06

PART01 |||| PART02 |||| PART03 |||| PART04 |||| PART05 |||| PART06


10 Comments
  1. หนึ่ง โชคดีมีเงินทองร่ำรวยมีความสุข

    ทำไมโหลดไม่ได้ครับ เติมเงินแล้ว

    1. Admin
      Admin says

      โหลด server0-4 ฮ๊ะ เลือกเชิฟที่เร็วที่สุดของเน็ตคุณครับ

  2. Wiroon Kesorn
    Wiroon Kesorn says

    f9-the-fast-saga-2021 โหลด VIP ไม่ได้ อะ คับ เติมเงิน แล้ว

    1. Admin
      Admin says

      โหลดได้ปกติฮ๊ะ แนะนำเลือกเชิฟเวอร์ โหลด 0-4 เชิฟไหนโหลดเร็วให้ใช้เชิฟนั้นนะฮ๊ะ

  3. อานนท์ says

    โหลดพาร์ท 2 ไม่ได้ครับ ทุกเว็ปเลยครับ

    1. Admin
      Admin says

      โหลดได้ปกติฮ๊ะ

  4. พงศธร เศษโถ says

    ทำไมผมโหลดไม่ได้สักอันครับ
    มันแจ้งว่าโดนห้าม

    1. Admin
      Admin says

      โหลดได้ปกติฮ๊ะ

  5. Worawit Benchawan
    Worawit Benchawan says

    รหัสคืออะไรอะครับ vip

    1. Admin
      Admin says

      มันอยู่หน้าช่องที่จะใส่เลยนะฮ๊ะ ก๊อปตรงนั้นใส่ฮ๊ะ

Leave A Reply

อีเมล์ของคุณจะไม่แสดงให้เห็น Your email address will not be published.

%d bloggers like this: