[MINI Super-HQ] Extreme Job (2019) ภารกิจทอดไก่ ซุ่มจับเจ้าพ่อ [1080p] [พากย์ไทย 2.0 + เสียงเกาหลี DTS] [บรรยายจีน + อังกฤษ] [เสียงไทยมาสเตอร์ + ซับ Eng] [PANDAFILE]

0

โหลดหนัง Extreme Job (2019) ภารกิจทอดไก่ ซุ่มจับเจ้าพ่อ

Extreme Job - Die Spicy-Chicken-Police (2019) 1h 51min | Action, Comedy, Crime | 23 January 2019 (South Korea) Summary: A police undercover operation takes a delicious, unexpected turn.
Countries: South KoreaLanguages: Korean, Mandarin

เรื่องย่อ Extreme Job (2019) ภารกิจทอดไก่ ซุ่มจับเจ้าพ่อ

เมื่อตำรวจสายกาก 5 นาย ซึ่งประกอบด้วย ผู้กองโก, จาง, หม่า, ยังโฮ และเด็กใหม่อย่าง แจฮุน ต้องไปซุ่มคอยดูเจ้าพ่อยาเสพติดอย่าง ลีมูแบ พวกเขาจึงซื้อกิจการร้านไก่ทอดมาเปิดบังหน้า แต่ทำไปทำมาดันขายดีซะงั้นจนพวกเขาเกือบลืมไปว่ามาทำอะไรกันแน่ และนี่ก็คือภาพยนตร์เกาหลีใต้สุดฮอตอย่าง ‘Extreme Job’ ที่เปิดตัวแรงสุด ๆ ด้วยการทำลายสถิติเป็นภาพยนตร์ที่มียอดผู้ชมจำนวนกว่ า 2 ล้านคน ภายในเวลาเพียงแค่ 3 วัน! จนเกิดเป็นกระแส Talk of the Town ในเกาหลีไปแล้วในช่วงต้นปี 2019 ที่ผ่านมาเรียกได้ว่าเป็นหนึ่งในภาพยนตร์มาแรงของปีเลยก็ว่าได ้!!!

Complete name : [MINI Super-HQ]_Extreme.Job.2019.1080p.BluRay.DTS.x264.THM.One2loadup.com.mkv
Format : Matroska
Format version : Version 4
File size : 3.97 GiB
Duration : 1 h 51 min
Overall bit rate : 5 119 kb/s
Movie name : [MINI Super-HQ]_Extreme.Job.2019.1080p.BluRay.DTS.x264.THM.One2loadup.com
Encoded date : UTC 2020-06-12 07:03:32
Writing application : mkvmerge v9.8.0 (‘Kuglblids’) 64bit
Writing library : libebml v1.3.4 + libmatroska v1.4.5

Video
ID : 1
Format : AVC
Format/Info : Advanced Video Codec
Format profile : [email protected]
Format settings : CABAC / 4 Ref Frames
Format settings, CABAC : Yes
Format settings, ReFrames : 4 frames
Codec ID : V_MPEG4/ISO/AVC
Duration : 1 h 51 min
Bit rate : 3 550 kb/s
Width : 1 920 pixels
Height : 804 pixels
Display aspect ratio : 2.40:1
Frame rate mode : Constant
Frame rate : 24.000 FPS
Color space : YUV
Chroma subsampling : 4:2:0
Bit depth : 8 bits
Scan type : Progressive
Bits/(Pixel*Frame) : 0.096
Stream size : 2.75 GiB (69%)
Title : [MINI Super-HQ]_Extreme.Job.2019.1080p.BluRay.DTS.x264.THM.One2loadup.com
Writing library : x264 core 146 r2538 121396c
Encoding settings : cabac=1 / ref=5 / deblock=1:-3:-3 / analyse=0x3:0x133 / me=tesa / subme=11 / psy=1 / psy_rd=1.00:0.15 / mixed_ref=1 / me_range=48 / chroma_me=1 / trellis=2 / 8x8dct=1 / cqm=0 / deadzone=21,11 / fast_pskip=1 / chroma_qp_offset=-3 / threads=54 / lookahead_threads=4 / sliced_threads=0 / nr=0 / decimate=1 / interlaced=0 / bluray_compat=1 / constrained_intra=0 / bframes=3 / b_pyramid=1 / b_adapt=2 / b_bias=0 / direct=3 / weightb=1 / open_gop=0 / weightp=1 / keyint=250 / keyint_min=1 / scenecut=40 / intra_refresh=0 / rc_lookahead=60 / rc=2pass / mbtree=1 / bitrate=3550 / ratetol=1.0 / qcomp=0.60 / qpmin=0 / qpmax=69 / qpstep=4 / cplxblur=20.0 / qblur=0.5 / ip_ratio=1.40 / aq=1:1.30
Language : Korean
Default : Yes
Forced : Yes

Audio #1
ID : 2
Format : AC-3
Format/Info : Audio Coding 3
Commercial name : Dolby Digital
Codec ID : A_AC3
Duration : 1 h 51 min
Bit rate mode : Constant
Bit rate : 384 kb/s
Channel(s) : 2 channels
Channel layout : L R
Sampling rate : 48.0 kHz
Frame rate : 31.250 FPS (1536 SPF)
Bit depth : 16 bits
Compression mode : Lossy
Stream size : 305 MiB (8%)
Title : Thai Master
Language : Thai
Service kind : Complete Main
Default : Yes
Forced : Yes

Audio #2
ID : 3
Format : DTS
Format/Info : Digital Theater Systems
Codec ID : A_DTS
Duration : 1 h 51 min
Bit rate mode : Constant
Bit rate : 755 kb/s
Channel(s) : 6 channels
Channel layout : C L R Ls Rs LFE
Sampling rate : 48.0 kHz
Frame rate : 93.750 FPS (512 SPF)
Bit depth : 24 bits
Compression mode : Lossy
Stream size : 600 MiB (15%)
Title : Korean DTS
Language : Korean
Default : No
Forced : No

Audio #3
ID : 4
Format : AAC LC
Format/Info : Advanced Audio Codec Low Complexity
Codec ID : A_AAC-2
Duration : 1 h 51 min
Bit rate : 374 kb/s
Channel(s) : 6 channels
Channel layout : C L R Ls Rs LFE
Sampling rate : 48.0 kHz
Frame rate : 46.875 FPS (1024 SPF)
Compression mode : Lossy
Delay relative to video : 20 ms
Stream size : 297 MiB (7%)
Title : Korean AAC
Language : Korean
Default : No
Forced : No

Text #1
ID : 5
Format : VobSub
Codec ID : S_VOBSUB
Codec ID/Info : Picture based subtitle format used on DVDs
Duration : 33 s 314 ms
Bit rate : 2 967 b/s
Count of elements : 1
Stream size : 12.1 KiB (0%)
Title : Siambit
Language : Thai
Default : Yes
Forced : Yes

Text #2
ID : 6
Format : PGS
Codec ID : S_HDMV/PGS
Codec ID/Info : Picture based subtitle format used on BDs/HD-DVDs
Duration : 1 h 46 min
Bit rate : 25.1 kb/s
Count of elements : 2909
Stream size : 19.2 MiB (0%)
Title : Chinese (Cantonese)
Language : Chinese
Default : No
Forced : No

Text #3
ID : 7
Format : PGS
Codec ID : S_HDMV/PGS
Codec ID/Info : Picture based subtitle format used on BDs/HD-DVDs
Duration : 1 h 46 min
Bit rate : 32.8 kb/s
Count of elements : 3205
Stream size : 25.1 MiB (1%)
Title : Chinese (Mandarin)
Language : Chinese
Default : No
Forced : No

Text #4
ID : 8
Format : UTF-8
Codec ID : S_TEXT/UTF8
Codec ID/Info : UTF-8 Plain Text
Duration : 1 h 47 min
Bit rate : 52 b/s
Count of elements : 1607
Stream size : 41.5 KiB (0%)
Title : English
Language : English
Default : No
Forced : No

Menu
00:00:00.000 : en:Chapter 01
00:07:25.291 : en:Chapter 02
00:17:19.791 : en:Chapter 03
00:26:57.458 : en:Chapter 04
00:35:21.125 : en:Chapter 05
00:46:18.083 : en:Chapter 06
00:56:10.750 : en:Chapter 07
01:04:23.500 : en:Chapter 08
01:13:56.208 : en:Chapter 09
01:23:06.583 : en:Chapter 10
01:31:29.916 : en:Chapter 11
01:39:09.041 : en:Chapter 12

DOWNLOAD


PART01 |||| PART02 |||| PART03 |||| PART04

PART01 |||| PART02 |||| PART03 |||| PART04

PART01 |||| PART02 |||| PART03 |||| PART04

PART01 |||| PART02 |||| PART03 |||| PART04

PART01 |||| PART02 |||| PART03 |||| PART04



Disable Comments
%d bloggers like this: