[MINI Super-HQ] Elvis (2022) เอลวิส [1080p] [พากย์ไทย 2.0 + เสียงอังกฤษ 5.1] [บรรยายไทย + อังกฤษ] [เสียงไทยมาสเตอร์ + ซับไทย] [USERLOAD]

0

โหลดหนัง Elvis (2022) เอลวิส

Elvis | June 24, 2022 (United States) Summary: The life of American music icon Elvis Presley, from his childhood to becoming a rock and movie star in the 1950s while maintaining a complex relationship with his manager, Colonel Tom Parker... Read all
Countries: United States, AustraliaLanguages: English

เรื่องย่อ Elvis (2022) เอลวิส

ภาพยนตร์จะพาไปสำรวจชีวิตและดนตรีของ เอลวิส เพรสลีย์ ผ่านมิติความสัมพันธ์แสนซับซ้อนกับผู้จัดการนิสัยลึกลับ ผู้พันทอมปาร์คเกอร์เรื่องราวจะเจาะลึกไปถึงสิ่งที่เกิดขึ้นระหว่าง เพรสลีย์ และปาร์คเกอร์ ตลอดเวลา 20 ปี ตั้งแต่ เพรสลีย์ เริ่มมีชื่อเสียงโด่งดังไปจนถึงตอนที่มีแฟนคลับล้นหลามอย่างที่ไม่เคยมีมาก่อน ท่ามกลางพื้นเพเบื้องหลังของวัฒนธรรมที่กำลังพัฒนาและการสูญเสียความไร้เดียงสาในอเมริกาในขณะเดียวกันก็มีอีกหนึ่งบุคคลสำคัญและมีอิทธิพลต่อชีวิตของ เอลวิส อย่างมากนั่นก็คือ พริสซิลลา เพรสลีย์!!!

Complete name : [MINI Super-HQ]_Elvis.2022.1080p.BrRip.AC3.x264.THM.One2loadup.com.mkv
Format : Matroska
Format version : Version 4
File size : 6.12 GiB
Duration : 2 h 39 min
Overall bit rate : 5 503 kb/s
Movie name : [MINI Super-HQ]_Elvis.2022.1080p.BrRip.AC3.x264.THM.One2loadup.com
Encoded date : UTC 2022-09-22 19:21:33
Writing application : mkvmerge v57.0.0 (‘Till The End’) 64-bit
Writing library : libebml v1.4.2 + libmatroska v1.6.4

Video
ID : 1
Format : AVC
Format/Info : Advanced Video Codec
Format profile : [email protected]
Format settings : CABAC / 4 Ref Frames
Format settings, CABAC : Yes
Format settings, Reference : 4 frames
Codec ID : V_MPEG4/ISO/AVC
Duration : 2 h 39 min
Bit rate : 4 500 kb/s
Width : 1 920 pixels
Height : 804 pixels
Display aspect ratio : 2.40:1
Frame rate mode : Constant
Frame rate : 23.976 (24000/1001) FPS
Color space : YUV
Chroma subsampling : 4:2:0
Bit depth : 8 bits
Scan type : Progressive
Bits/(Pixel*Frame) : 0.122
Stream size : 5.01 GiB (82%)
Title : [MINI Super-HQ]_Elvis.2022.1080p.BrRip.AC3.x264.THM.One2loadup.com
Writing library : x264 core 164 r3065 ae03d92
Encoding settings : cabac=1 / ref=4 / deblock=1:0:0 / analyse=0x1:0x131 / me=umh / subme=10 / psy=1 / psy_rd=1.00:0.20 / mixed_ref=1 / me_range=32 / chroma_me=1 / trellis=2 / 8x8dct=0 / cqm=0 / deadzone=21,11 / fast_pskip=0 / chroma_qp_offset=-3 / threads=24 / lookahead_threads=6 / sliced_threads=0 / nr=0 / decimate=1 / interlaced=0 / bluray_compat=0 / constrained_intra=0 / bframes=10 / b_pyramid=2 / b_adapt=2 / b_bias=0 / direct=3 / weightb=1 / open_gop=0 / weightp=2 / keyint=240 / keyint_min=23 / scenecut=40 / intra_refresh=0 / rc_lookahead=60 / rc=2pass / mbtree=0 / bitrate=4500 / ratetol=1.0 / qcomp=0.60 / qpmin=0 / qpmax=69 / qpstep=4 / cplxblur=20.0 / qblur=0.5 / vbv_maxrate=50000 / vbv_bufsize=62500 / nal_hrd=none / filler=0 / ip_ratio=1.40 / pb_ratio=1.30 / aq=1:1.00
Language : English
Default : Yes
Forced : No
Color range : Limited
Color primaries : BT.709
Transfer characteristics : BT.709
Matrix coefficients : BT.709

Audio #1
ID : 2
Format : AC-3
Format/Info : Audio Coding 3
Commercial name : Dolby Digital
Codec ID : A_AC3
Duration : 2 h 39 min
Bit rate mode : Constant
Bit rate : 384 kb/s
Channel(s) : 2 channels
Channel layout : L R
Sampling rate : 48.0 kHz
Frame rate : 31.250 FPS (1536 SPF)
Compression mode : Lossy
Stream size : 437 MiB (7%)
Title : Thai DD 2.0 Master
Language : Thai
Service kind : Complete Main
Default : Yes
Forced : No

Audio #2
ID : 3
Format : AC-3
Format/Info : Audio Coding 3
Commercial name : Dolby Digital
Codec ID : A_AC3
Duration : 2 h 39 min
Bit rate mode : Constant
Bit rate : 448 kb/s
Channel(s) : 6 channels
Channel layout : L R C LFE Ls Rs
Sampling rate : 48.0 kHz
Frame rate : 31.250 FPS (1536 SPF)
Compression mode : Lossy
Stream size : 510 MiB (8%)
Title : English DD 5.1
Language : English
Service kind : Complete Main
Default : No
Forced : No

Text #1
ID : 4
Format : PGS
Codec ID : S_HDMV/PGS
Codec ID/Info : Picture based subtitle format used on BDs/HD-DVDs
Duration : 2 h 38 min
Bit rate : 44.4 kb/s
Count of elements : 3752
Stream size : 50.4 MiB (1%)
Title : Thai PGS
Language : Thai
Default : Yes
Forced : No

Text #2
ID : 5
Format : VobSub
Codec ID : S_VOBSUB
Codec ID/Info : Picture based subtitle format used on DVDs
Duration : 2 h 38 min
Bit rate : 11.2 kb/s
Count of elements : 1876
Stream size : 12.7 MiB (0%)
Title : Thai VobSub
Language : Thai
Default : No
Forced : No

Text #3
ID : 6
Format : PGS
Codec ID : S_HDMV/PGS
Codec ID/Info : Picture based subtitle format used on BDs/HD-DVDs
Duration : 2 h 38 min
Bit rate : 44.4 kb/s
Count of elements : 3752
Stream size : 50.4 MiB (1%)
Title : Thai PGS Out
Language : Thai
Default : No
Forced : No

Text #4
ID : 7
Format : VobSub
Codec ID : S_VOBSUB
Codec ID/Info : Picture based subtitle format used on DVDs
Duration : 2 h 38 min
Bit rate : 11.2 kb/s
Count of elements : 1876
Stream size : 12.7 MiB (0%)
Title : Thai VobSub Out
Language : Thai
Default : No
Forced : No

Text #5
ID : 8
Format : VobSub
Codec ID : S_VOBSUB
Codec ID/Info : Picture based subtitle format used on DVDs
Duration : 2 h 38 min
Bit rate : 11.2 kb/s
Count of elements : 1876
Stream size : 12.7 MiB (0%)
Title : Thai VobSub [Yellow]
Language : Thai
Default : No
Forced : No

Text #6
ID : 9
Format : PGS
Codec ID : S_HDMV/PGS
Codec ID/Info : Picture based subtitle format used on BDs/HD-DVDs
Duration : 2 h 39 min
Bit rate : 47.0 kb/s
Count of elements : 5370
Stream size : 53.5 MiB (1%)
Title : English PGS
Language : English
Default : No
Forced : No

Menu
00:00:00.000 : Chapter 01
00:09:06.879 : Chapter 02
00:14:31.370 : Chapter 03
00:22:06.033 : Chapter 04
00:29:46.993 : Chapter 05
00:38:06.575 : Chapter 06
00:46:20.736 : Chapter 07
00:53:33.793 : Chapter 08
01:03:29.263 : Chapter 09
01:12:05.070 : Chapter 10
01:21:10.615 : Chapter 11
01:30:16.911 : Chapter 12
01:39:19.370 : Chapter 13
01:48:44.976 : Chapter 14
01:57:10.898 : Chapter 15
02:04:46.145 : Chapter 16
02:13:03.725 : Chapter 17
02:22:35.630 : Chapter 18
02:29:55.861 : Chapter 19

DOWNLOAD


PART01 |||| PART02 |||| PART03 |||| PART04 |||| PART05 |||| PART06 |||| PART07

PART01 |||| PART02 |||| PART03 |||| PART04 |||| PART05 |||| PART06 |||| PART07

PART01 |||| PART02 |||| PART03 |||| PART04 |||| PART05 |||| PART06 |||| PART07

PART01 |||| PART02 |||| PART03 |||| PART04 |||| PART05 |||| PART06 |||| PART07

PART01 |||| PART02 |||| PART03 |||| PART04 |||| PART05 |||| PART06 |||| PART07


Leave A Reply

อีเมล์ของคุณจะไม่แสดงให้เห็น Your email address will not be published.

%d bloggers like this: