[MINI Super-HQ] Elemental (2023) เมืองอลวนธาตุอลเวง [1080p] [พากย์ไทย 5.1 + เสียงอังกฤษ 5.1] [บรรยายไทย + อังกฤษ] [เสียงไทย + ซับไทย] [DOSYAUPLOAD]

0

โหลดหนัง Elemental (2023) เมืองอลวนธาตุอลเวง

Elemental | June 16, 2023 (United States) Summary: Follows Ember and Wade, in a city where fire-, water-, land- and air-residents live together.
Countries: United StatesLanguages: English

เรื่องย่อ Elemental (2023) เมืองอลวนธาตุอลเวง

เรื่องราวของ ธาตุมหานคร (Element City) ซึ่งมีชาว ดิน น้ำ ลมและไฟ อาศัยอยู่ร่วมกัน แอนิเมชันเรื่องนี้ จะพาผู้ชมไปพบกับ เอ็มเบอร์ (Ember) สาวแก่น หัวไว ไฟแรง ที่เป็นเพื่อนกับ เวด (Wade) หนุ่มร่าเริง ที่ใช้ชีวิตแบบปล่อยจอยลอยลมในทุกสถานการณ์ และเข้ามาเปลี่ยนทัศนคติต่อโลกที่พวกเขาอาศัยอยู่!!!

Complete name : [MINI Super-HQ]_Elemental.2023.1080p.BrRip.EAC3.x264.THD.One2loadup.com.mkv
Format : Matroska
Format version : Version 4
File size : 4.98 GiB
Duration : 1 h 41 min
Overall bit rate : 7 021 kb/s
Movie name : [MINI Super-HQ]_Elemental.2023.1080p.BrRip.EAC3.x264.THD.One2loadup.com
Encoded date : UTC 2023-09-24 18:36:49
Writing application : mkvmerge v9.8.0 (‘Kuglblids’) 64bit
Writing library : libebml v1.3.4 + libmatroska v1.4.5

Video
ID : 1
Format : AVC
Format/Info : Advanced Video Codec
Format profile : [email protected]
Format settings : CABAC / 4 Ref Frames
Format settings, CABAC : Yes
Format settings, Reference : 4 frames
Codec ID : V_MPEG4/ISO/AVC
Duration : 1 h 41 min
Bit rate : 5 757 kb/s
Width : 1 920 pixels
Height : 1 036 pixels
Display aspect ratio : 1.85:1
Frame rate mode : Constant
Frame rate : 23.976 (24000/1001) FPS
Color space : YUV
Chroma subsampling : 4:2:0
Bit depth : 8 bits
Scan type : Progressive
Bits/(Pixel*Frame) : 0.121
Stream size : 4.08 GiB (82%)
Title : [MINI Super-HQ]_Elemental.2023.1080p.BrRip.EAC3.x264.THD.One2loadup.com
Writing library : x264 core 157 r2935 545de2f
Encoding settings : cabac=1 / ref=4 / deblock=1:0:0 / analyse=0x1:0x131 / me=tesa / subme=11 / psy=1 / psy_rd=1.00:0.00 / mixed_ref=1 / me_range=24 / chroma_me=1 / trellis=2 / 8x8dct=0 / cqm=0 / deadzone=21,11 / fast_pskip=0 / chroma_qp_offset=-2 / threads=12 / lookahead_threads=3 / sliced_threads=0 / nr=0 / decimate=1 / interlaced=0 / bluray_compat=0 / constrained_intra=0 / bframes=16 / b_pyramid=2 / b_adapt=2 / b_bias=0 / direct=3 / weightb=1 / open_gop=0 / weightp=2 / keyint=240 / keyint_min=24 / scenecut=40 / intra_refresh=0 / rc_lookahead=60 / rc=2pass / mbtree=1 / bitrate=5757 / ratetol=1.0 / qcomp=0.60 / qpmin=0 / qpmax=69 / qpstep=4 / cplxblur=20.0 / qblur=0.5 / vbv_maxrate=50000 / vbv_bufsize=62500 / nal_hrd=none / filler=0 / ip_ratio=1.40 / aq=1:1.00
Language : English
Default : Yes
Forced : No
Color range : Limited
Color primaries : BT.709
Transfer characteristics : BT.709
Matrix coefficients : BT.709

Audio #1
ID : 2
Format : AC-3
Format/Info : Audio Coding 3
Commercial name : Dolby Digital
Codec ID : A_AC3
Duration : 1 h 41 min
Bit rate mode : Constant
Bit rate : 384 kb/s
Channel(s) : 6 channels
Channel layout : L R C LFE Ls Rs
Sampling rate : 48.0 kHz
Frame rate : 31.250 FPS (1536 SPF)
Compression mode : Lossy
Stream size : 279 MiB (5%)
Title : Thai DD 5.1
Language : Thai
Service kind : Complete Main
Default : Yes
Forced : Yes

Audio #2
ID : 3
Format : E-AC-3 JOC
Format/Info : Enhanced AC-3 with Joint Object Coding
Commercial name : Dolby Digital Plus with Dolby Atmos
Codec ID : A_EAC3
Duration : 1 h 41 min
Bit rate mode : Constant
Bit rate : 768 kb/s
Channel(s) : 6 channels
Channel layout : L R C LFE Ls Rs
Sampling rate : 48.0 kHz
Frame rate : 31.250 FPS (1536 SPF)
Compression mode : Lossy
Stream size : 557 MiB (11%)
Title : English DD+ 5.1 Atmos
Language : English
Service kind : Complete Main
Default : No
Forced : No
Complexity index : 16
Number of dynamic objects : 15
Bed channel count : 1 channel
Bed channel configuration : LFE

Text #1
ID : 4
Format : PGS
Codec ID : S_HDMV/PGS
Codec ID/Info : Picture based subtitle format used on BDs/HD-DVDs
Duration : 1 h 38 min
Bit rate : 40.9 kb/s
Count of elements : 2492
Stream size : 28.8 MiB (1%)
Title : Thai PGS
Language : Thai
Default : Yes
Forced : Yes

Text #2
ID : 5
Format : VobSub
Codec ID : S_VOBSUB
Codec ID/Info : Picture based subtitle format used on DVDs
Duration : 1 h 38 min
Bit rate : 10.2 kb/s
Count of elements : 1246
Stream size : 7.20 MiB (0%)
Title : Thai VobSub
Language : Thai
Default : No
Forced : No

Text #3
ID : 6
Format : VobSub
Codec ID : S_VOBSUB
Codec ID/Info : Picture based subtitle format used on DVDs
Duration : 1 h 38 min
Bit rate : 10.2 kb/s
Count of elements : 1246
Stream size : 7.19 MiB (0%)
Title : Thai VobSub [Yellow]
Language : Thai
Default : No
Forced : No

Text #4
ID : 7
Format : PGS
Codec ID : S_HDMV/PGS
Codec ID/Info : Picture based subtitle format used on BDs/HD-DVDs
Duration : 1 h 40 min
Bit rate : 51.3 kb/s
Count of elements : 3906
Stream size : 36.8 MiB (1%)
Title : English PGS
Language : English
Default : No
Forced : No

Menu
00:00:00.000 : en:Chapter 01
00:08:16.162 : en:Chapter 02
00:11:11.170 : en:Chapter 03
00:14:24.572 : en:Chapter 04
00:18:14.385 : en:Chapter 05
00:21:24.741 : en:Chapter 06
00:22:54.915 : en:Chapter 07
00:25:24.231 : en:Chapter 08
00:26:11.194 : en:Chapter 09
00:31:29.220 : en:Chapter 10
00:32:33.368 : en:Chapter 11
00:35:54.235 : en:Chapter 12
00:38:32.018 : en:Chapter 13
00:42:43.185 : en:Chapter 14
00:47:12.120 : en:Chapter 15
00:51:35.634 : en:Chapter 16
00:58:51.527 : en:Chapter 17
01:02:46.262 : en:Chapter 18
01:05:08.571 : en:Chapter 19
01:09:46.015 : en:Chapter 20
01:13:47.589 : en:Chapter 21
01:18:00.592 : en:Chapter 22
01:19:22.257 : en:Chapter 23
01:24:23.266 : en:Chapter 24
01:28:28.511 : en:Chapter 25
01:31:37.825 : en:Chapter 26
01:33:51.875 : en:Chapter 27

DOWNLOAD


PART01 |||| PART02 |||| PART03 |||| PART04 |||| PART05 |||| PART06

PART01 |||| PART02 |||| PART03 |||| PART04 |||| PART05 |||| PART06

PART01 |||| PART02 |||| PART03 |||| PART04 |||| PART05 |||| PART06

PART01 |||| PART02 |||| PART03 |||| PART04 |||| PART05 |||| PART06

PART01 |||| PART02 |||| PART03 |||| PART04 |||| PART05 |||| PART06


Leave A Reply

อีเมล์ของคุณจะไม่แสดงให้เห็น Your email address will not be published.

%d