[MINI Super-HQ] DEAW#13 Udom Taephanich Stand Up Comedy Show (2022) เดี่ยว 13 โน๊ต อุดม สแตนด์อัพคอมเมดี้ [1080p] [NETFLIX] [พากย์ไทย 5.1] [บรรยายไทย + อังกฤษ + Multi] [เสียงไทย + ซับไทย] [DOSYAUPLOAD]

0

โหลดหนัง DEAW#13 Udom Taephanich Stand Up Comedy Show (2022) เดี่ยว 13 โน๊ต อุดม สแตนด์อัพคอมเมดี้

Deaw13 Thai Stand Up Comedy | October 11, 2022 (United States) Summary:
Countries: ThailandLanguages: Thai

เรื่องย่อ DEAW#13 Udom Taephanich Stand Up Comedy Show (2022) เดี่ยว 13 โน๊ต อุดม สแตนด์อัพคอมเมดี้

อุดม แต้พานิช ตลกเดี่ยวไมโครโฟนกลับมาระบายความอัดอั้นตันใจบนเวที ตั้งแต่ประสบการณ์ตรวจต่อมลูกหมาก จนถึงเรื่องประหลาดในงานศพ ด้วยลีลาท่าทีที่ทุกคนคุ้นเคย

Complete name : [MINI Super-HQ]_DEAW13.Udom.Taephanich.Stand.Up.Comedy.Show.2022.1080p.NF.WEB-DL.EAC3.x264.One2loadup.com.mkv
Format : Matroska
Format version : Version 4
File size : 4.16 GiB
Duration : 2 h 52 min
Overall bit rate mode : Variable
Overall bit rate : 3 445 kb/s
Movie name : [MINI Super-HQ]_DEAW13.Udom.Taephanich.Stand.Up.Comedy.Show.2022.1080p.NF.WEB-DL.EAC3.x264.One2loadup.com
Writing application : mkvmerge v70.0.0 (‘Caught A Lite Sneeze’) 64-bit
Writing library : libebml v1.4.2 + libmatroska v1.6.4

Video
ID : 1
Format : AVC
Format/Info : Advanced Video Codec
Format profile : [email protected]
Format settings : CABAC / 3 Ref Frames
Format settings, CABAC : Yes
Format settings, Reference : 3 frames
Codec ID : V_MPEG4/ISO/AVC
Duration : 2 h 52 min
Bit rate mode : Variable
Bit rate : 2 870 kb/s
Maximum bit rate : 4 305 kb/s
Width : 1 920 pixels
Height : 1 080 pixels
Display aspect ratio : 16:9
Frame rate mode : Constant
Frame rate : 25.000 FPS
Color space : YUV
Chroma subsampling : 4:2:0
Bit depth : 8 bits
Scan type : Progressive
Bits/(Pixel*Frame) : 0.055
Stream size : 3.38 GiB (81%)
Title : [MINI Super-HQ]_DEAW13.Udom.Taephanich.Stand.Up.Comedy.Show.2022.1080p.NF.WEB-DL.EAC3.x264.One2loadup.com
Writing library : x264 core 148 r2727 7d026e8
Encoding settings : cabac=1 / ref=3 / deblock=1:0:0 / analyse=0x1:0x111 / me=umh / subme=10 / psy=1 / psy_rd=1.00:0.00 / mixed_ref=1 / me_range=24 / chroma_me=1 / trellis=2 / 8x8dct=0 / cqm=0 / deadzone=21,11 / fast_pskip=1 / chroma_qp_offset=-2 / threads=8 / lookahead_threads=1 / sliced_threads=0 / nr=0 / decimate=1 / interlaced=0 / bluray_compat=0 / stitchable=1 / constrained_intra=0 / bframes=2 / b_pyramid=0 / b_adapt=2 / b_bias=0 / direct=3 / weightb=1 / open_gop=0 / weightp=2 / keyint=250 / keyint_min=25 / scenecut=0 / intra_refresh=0 / rc_lookahead=50 / rc=2pass / mbtree=1 / bitrate=2870 / ratetol=1.0 / qcomp=0.50 / qpmin=6 / qpmax=51 / qpstep=4 / cplxblur=20.0 / qblur=0.5 / vbv_maxrate=4305 / vbv_bufsize=5740 / nal_hrd=vbr / filler=0 / ip_ratio=1.40 / aq=1:1.00
Language : Thai
Default : Yes
Forced : No

Audio
ID : 2
Format : E-AC-3
Format/Info : Enhanced AC-3
Commercial name : Dolby Digital Plus
Codec ID : A_EAC3
Duration : 2 h 52 min
Bit rate mode : Constant
Bit rate : 640 kb/s
Channel(s) : 6 channels
Channel layout : L R C LFE Ls Rs
Sampling rate : 48.0 kHz
Frame rate : 31.250 FPS (1536 SPF)
Compression mode : Lossy
Stream size : 791 MiB (19%)
Language : Thai
Service kind : Complete Main
Default : Yes
Forced : No

Text #1
ID : 3
Format : UTF-8
Codec ID : S_TEXT/UTF8
Codec ID/Info : UTF-8 Plain Text
Duration : 1 min 22 s
Bit rate : 9 b/s
Count of elements : 2
Stream size : 93.0 Bytes (0%)
Title : Forced
Language : Thai
Default : Yes
Forced : Yes

Text #2
ID : 4
Format : UTF-8
Codec ID : S_TEXT/UTF8
Codec ID/Info : UTF-8 Plain Text
Duration : 2 h 52 min
Bit rate : 217 b/s
Count of elements : 4092
Stream size : 275 KiB (0%)
Language : Thai
Default : No
Forced : No

Text #3
ID : 5
Format : UTF-8
Codec ID : S_TEXT/UTF8
Codec ID/Info : UTF-8 Plain Text
Duration : 2 h 52 min
Bit rate : 227 b/s
Count of elements : 4092
Stream size : 286 KiB (0%)
Title : SDH
Language : Thai
Default : No
Forced : No

Text #4
ID : 6
Format : UTF-8
Codec ID : S_TEXT/UTF8
Codec ID/Info : UTF-8 Plain Text
Duration : 2 h 52 min
Bit rate : 134 b/s
Count of elements : 3035
Stream size : 170 KiB (0%)
Language : Arabic
Default : No
Forced : No

Text #5
ID : 7
Format : UTF-8
Codec ID : S_TEXT/UTF8
Codec ID/Info : UTF-8 Plain Text
Duration : 2 h 52 min
Bit rate : 83 b/s
Count of elements : 3007
Stream size : 106 KiB (0%)
Language : Czech
Default : No
Forced : No

Text #6
ID : 8
Format : UTF-8
Codec ID : S_TEXT/UTF8
Codec ID/Info : UTF-8 Plain Text
Duration : 2 h 52 min
Bit rate : 86 b/s
Count of elements : 2347
Stream size : 109 KiB (0%)
Language : Danish
Default : No
Forced : No

Text #7
ID : 9
Format : UTF-8
Codec ID : S_TEXT/UTF8
Codec ID/Info : UTF-8 Plain Text
Duration : 2 h 52 min
Bit rate : 92 b/s
Count of elements : 3013
Stream size : 117 KiB (0%)
Language : German
Default : No
Forced : No

Text #8
ID : 10
Format : UTF-8
Codec ID : S_TEXT/UTF8
Codec ID/Info : UTF-8 Plain Text
Duration : 2 h 52 min
Bit rate : 146 b/s
Count of elements : 3022
Stream size : 185 KiB (0%)
Language : Greek
Default : No
Forced : No

Text #9
ID : 11
Format : UTF-8
Codec ID : S_TEXT/UTF8
Codec ID/Info : UTF-8 Plain Text
Duration : 2 h 51 min
Bit rate : 89 b/s
Count of elements : 3038
Stream size : 112 KiB (0%)
Language : English
Default : No
Forced : No

Text #10
ID : 12
Format : UTF-8
Codec ID : S_TEXT/UTF8
Codec ID/Info : UTF-8 Plain Text
Duration : 2 h 52 min
Bit rate : 84 b/s
Count of elements : 2843
Stream size : 106 KiB (0%)
Language : Spanish
Default : No
Forced : No

Text #11
ID : 13
Format : UTF-8
Codec ID : S_TEXT/UTF8
Codec ID/Info : UTF-8 Plain Text
Duration : 2 h 52 min
Bit rate : 87 b/s
Count of elements : 2938
Stream size : 110 KiB (0%)
Title : European
Language : Spanish
Default : No
Forced : No

Text #12
ID : 14
Format : UTF-8
Codec ID : S_TEXT/UTF8
Codec ID/Info : UTF-8 Plain Text
Duration : 2 h 52 min
Bit rate : 67 b/s
Count of elements : 2774
Stream size : 85.9 KiB (0%)
Language : Finnish
Default : No
Forced : No

Text #13
ID : 15
Format : UTF-8
Codec ID : S_TEXT/UTF8
Codec ID/Info : UTF-8 Plain Text
Duration : 2 h 52 min
Bit rate : 99 b/s
Count of elements : 3039
Stream size : 126 KiB (0%)
Language : fil
Default : No
Forced : No

Text #14
ID : 16
Format : UTF-8
Codec ID : S_TEXT/UTF8
Codec ID/Info : UTF-8 Plain Text
Duration : 2 h 52 min
Bit rate : 82 b/s
Count of elements : 3039
Stream size : 105 KiB (0%)
Language : French
Default : No
Forced : No

Text #15
ID : 17
Format : UTF-8
Codec ID : S_TEXT/UTF8
Codec ID/Info : UTF-8 Plain Text
Duration : 2 h 52 min
Bit rate : 124 b/s
Count of elements : 3032
Stream size : 158 KiB (0%)
Language : Hebrew
Default : No
Forced : No

Text #16
ID : 18
Format : UTF-8
Codec ID : S_TEXT/UTF8
Codec ID/Info : UTF-8 Plain Text
Duration : 2 h 52 min
Bit rate : 79 b/s
Count of elements : 3038
Stream size : 100 KiB (0%)
Language : Croatian
Default : No
Forced : No

Text #17
ID : 19
Format : UTF-8
Codec ID : S_TEXT/UTF8
Codec ID/Info : UTF-8 Plain Text
Duration : 2 h 52 min
Bit rate : 86 b/s
Count of elements : 2700
Stream size : 109 KiB (0%)
Language : Hungarian
Default : No
Forced : No

Text #18
ID : 20
Format : UTF-8
Codec ID : S_TEXT/UTF8
Codec ID/Info : UTF-8 Plain Text
Duration : 2 h 52 min
Bit rate : 91 b/s
Count of elements : 3039
Stream size : 116 KiB (0%)
Language : Indonesian
Default : No
Forced : No

Text #19
ID : 21
Format : UTF-8
Codec ID : S_TEXT/UTF8
Codec ID/Info : UTF-8 Plain Text
Duration : 2 h 52 min
Bit rate : 82 b/s
Count of elements : 3024
Stream size : 104 KiB (0%)
Language : Italian
Default : No
Forced : No

Text #20
ID : 22
Format : UTF-8
Codec ID : S_TEXT/UTF8
Codec ID/Info : UTF-8 Plain Text
Duration : 2 h 52 min
Bit rate : 83 b/s
Count of elements : 2476
Stream size : 106 KiB (0%)
Language : Japanese
Default : No
Forced : No

Text #21
ID : 23
Format : UTF-8
Codec ID : S_TEXT/UTF8
Codec ID/Info : UTF-8 Plain Text
Duration : 2 h 52 min
Bit rate : 109 b/s
Count of elements : 3030
Stream size : 138 KiB (0%)
Language : Korean
Default : No
Forced : No

Text #22
ID : 24
Format : UTF-8
Codec ID : S_TEXT/UTF8
Codec ID/Info : UTF-8 Plain Text
Duration : 2 h 52 min
Bit rate : 88 b/s
Count of elements : 3018
Stream size : 112 KiB (0%)
Language : Malay
Default : No
Forced : No

Text #23
ID : 25
Format : UTF-8
Codec ID : S_TEXT/UTF8
Codec ID/Info : UTF-8 Plain Text
Duration : 2 h 52 min
Bit rate : 85 b/s
Count of elements : 3008
Stream size : 108 KiB (0%)
Language : Norwegian Bokmal
Default : No
Forced : No

Text #24
ID : 26
Format : UTF-8
Codec ID : S_TEXT/UTF8
Codec ID/Info : UTF-8 Plain Text
Duration : 2 h 52 min
Bit rate : 80 b/s
Count of elements : 2392
Stream size : 102 KiB (0%)
Language : Dutch
Default : No
Forced : No

Text #25
ID : 27
Format : UTF-8
Codec ID : S_TEXT/UTF8
Codec ID/Info : UTF-8 Plain Text
Duration : 2 h 52 min
Bit rate : 73 b/s
Count of elements : 2814
Stream size : 93.1 KiB (0%)
Language : Polish
Default : No
Forced : No

Text #26
ID : 28
Format : UTF-8
Codec ID : S_TEXT/UTF8
Codec ID/Info : UTF-8 Plain Text
Duration : 2 h 52 min
Bit rate : 84 b/s
Count of elements : 3033
Stream size : 107 KiB (0%)
Language : Portuguese
Default : No
Forced : No

Text #27
ID : 29
Format : UTF-8
Codec ID : S_TEXT/UTF8
Codec ID/Info : UTF-8 Plain Text
Duration : 2 h 52 min
Bit rate : 85 b/s
Count of elements : 3017
Stream size : 109 KiB (0%)
Title : Brazilian
Language : Portuguese
Default : No
Forced : No

Text #28
ID : 30
Format : UTF-8
Codec ID : S_TEXT/UTF8
Codec ID/Info : UTF-8 Plain Text
Duration : 2 h 51 min
Bit rate : 93 b/s
Count of elements : 2870
Stream size : 118 KiB (0%)
Language : Romanian
Default : No
Forced : No

Text #29
ID : 31
Format : UTF-8
Codec ID : S_TEXT/UTF8
Codec ID/Info : UTF-8 Plain Text
Duration : 2 h 52 min
Bit rate : 84 b/s
Count of elements : 2911
Stream size : 107 KiB (0%)
Language : Swedish
Default : No
Forced : No

Text #30
ID : 32
Format : UTF-8
Codec ID : S_TEXT/UTF8
Codec ID/Info : UTF-8 Plain Text
Duration : 2 h 52 min
Bit rate : 92 b/s
Count of elements : 3009
Stream size : 116 KiB (0%)
Language : Turkish
Default : No
Forced : No

Text #31
ID : 33
Format : UTF-8
Codec ID : S_TEXT/UTF8
Codec ID/Info : UTF-8 Plain Text
Duration : 2 h 52 min
Bit rate : 139 b/s
Count of elements : 3039
Stream size : 177 KiB (0%)
Language : Ukrainian
Default : No
Forced : No

Text #32
ID : 34
Format : UTF-8
Codec ID : S_TEXT/UTF8
Codec ID/Info : UTF-8 Plain Text
Duration : 2 h 52 min
Bit rate : 127 b/s
Count of elements : 3039
Stream size : 161 KiB (0%)
Language : Vietnamese
Default : No
Forced : No

Text #33
ID : 35
Format : UTF-8
Codec ID : S_TEXT/UTF8
Codec ID/Info : UTF-8 Plain Text
Duration : 2 h 52 min
Bit rate : 87 b/s
Count of elements : 3039
Stream size : 110 KiB (0%)
Title : Simplified
Language : Chinese
Default : No
Forced : No

Text #34
ID : 36
Format : UTF-8
Codec ID : S_TEXT/UTF8
Codec ID/Info : UTF-8 Plain Text
Duration : 2 h 52 min
Bit rate : 82 b/s
Count of elements : 3039
Stream size : 105 KiB (0%)
Title : Traditional
Language : Chinese
Default : No
Forced : No

DOWNLOAD


PART01 |||| PART02 |||| PART03 |||| PART04 |||| PART05

PART01 |||| PART02 |||| PART03 |||| PART04 |||| PART05

PART01 |||| PART02 |||| PART03 |||| PART04 |||| PART05

PART01 |||| PART02 |||| PART03 |||| PART04 |||| PART05

PART01 |||| PART02 |||| PART03 |||| PART04 |||| PART05


Leave A Reply

อีเมล์ของคุณจะไม่แสดงให้เห็น Your email address will not be published.

%d bloggers like this: