[MINI Super-HQ] Daddy’s Home (2015) สงครามป่วน (ตัว)พ่อสุดแสบ [1080p] [พากย์ไทย 5.1] [บรรยายไทย + อังกฤษ] [เสียงไทย + ซับไทย] [PANDAFILE]

0

โหลดหนัง Daddy’s Home (2015) สงครามป่วน (ตัว)พ่อสุดแสบ

Daddy's Home - Ein Vater zu viel (2015) 1h 36min | Comedy, Family | 21 January 2016 (Germany) Summary: Brad Whitaker is a radio host trying to get his stepchildren to love him and call him Dad. But his plans turn upside down when their biological father, Dusty Mayron, returns.
Countries: USALanguages: English

เรื่องย่อ Daddy’s Home (2015) สงครามป่วน (ตัว)พ่อสุดแสบ

เรื่องราวของผู้บริหารสถานีวิทยุที่สุภาพอ่อนโยน ซึ่งพยายามทำหน้าที่คุณพ่อที่ดีทำให้ลูกเลี้ยงทั้ง 2 คน ประทับใจและยอมรับในตัวเขา แต่ความพยายามของเขากลับเจออุปสรรคเมื่อพ่อแท้ ๆ ผู้รักอิสระและพร้อมที่จะเอาเปรียบคนอื่นอยู่เสมอกลับมาเยี่ยมลูก ๆ ของเขา ดังนั้น การแข่งขันแย่งชิงความรักจากลูก ๆ จึงเกิดขึ้น!!!

Complete name : [MINI Super-HQ]_Daddy’s.Home.2015.BrRip.AC3.x264.One2loadup.com.mkv
Format : Matroska
Format version : Version 4
File size : 3.33 GiB
Duration : 1 h 36 min
Overall bit rate : 4 964 kb/s
Movie name : [MINI Super-HQ]_Daddy’s.Home.2015.BrRip.AC3.x264.One2loadup.com
Encoded date : UTC 2010-02-22 21:41:31
Writing application : mkvmerge v5.9.0 (‘On The Loose’) built on Dec 9 2012 15:37:01
Writing library : libebml v1.3.0 + libmatroska v1.4.0

Video
ID : 1
Format : AVC
Format/Info : Advanced Video Codec
Format profile : [email protected]
Format settings : CABAC / 4 Ref Frames
Format settings, CABAC : Yes
Format settings, ReFrames : 4 frames
Codec ID : V_MPEG4/ISO/AVC
Duration : 1 h 36 min
Bit rate : 4 555 kb/s
Width : 1 920 pixels
Height : 1 080 pixels
Display aspect ratio : 16:9
Frame rate mode : Constant
Frame rate : 23.976 (24000/1001) FPS
Color space : YUV
Chroma subsampling : 4:2:0
Bit depth : 8 bits
Scan type : Progressive
Bits/(Pixel*Frame) : 0.092
Stream size : 3.01 GiB (90%)
Title : [MINI Super-HQ]_Daddy’s.Home.2015.BrRip.AC3.x264.One2loadup.com
Writing library : x264 core 130 r2273 b3065e6
Encoding settings : cabac=1 / ref=3 / deblock=1:0:0 / analyse=0x3:0x113 / me=umh / subme=11 / psy=1 / psy_rd=1.00:0.00 / mixed_ref=1 / me_range=48 / chroma_me=1 / trellis=2 / 8x8dct=1 / cqm=0 / deadzone=21,11 / fast_pskip=1 / chroma_qp_offset=-2 / threads=12 / lookahead_threads=1 / sliced_threads=0 / nr=0 / decimate=1 / interlaced=0 / bluray_compat=0 / constrained_intra=0 / bframes=3 / b_pyramid=2 / b_adapt=1 / b_bias=0 / direct=1 / weightb=1 / open_gop=0 / weightp=2 / keyint=240 / keyint_min=24 / scenecut=40 / intra_refresh=0 / rc_lookahead=40 / rc=2pass / mbtree=1 / bitrate=4555 / ratetol=1.0 / qcomp=0.60 / qpmin=0 / qpmax=69 / qpstep=4 / cplxblur=20.0 / qblur=0.5 / ip_ratio=1.40 / aq=1:1.00
Language : English
Default : Yes
Forced : No
Color range : Limited
Color primaries : BT.709
Transfer characteristics : BT.709
Matrix coefficients : BT.709

Audio
ID : 2
Format : AC-3
Format/Info : Audio Coding 3
Commercial name : Dolby Digital
Codec ID : A_AC3
Duration : 1 h 36 min
Bit rate mode : Constant
Bit rate : 384 kb/s
Channel(s) : 6 channels
Channel layout : L R C LFE Ls Rs
Sampling rate : 48.0 kHz
Frame rate : 31.250 FPS (1536 SPF)
Bit depth : 16 bits
Compression mode : Lossy
Stream size : 264 MiB (8%)
Title : Thai From DVD Master
Language : Thai
Service kind : Complete Main
Default : Yes
Forced : Yes

Text #1
ID : 3
Format : PGS
Muxing mode : zlib
Codec ID : S_HDMV/PGS
Codec ID/Info : Picture based subtitle format used on BDs/HD-DVDs
Title : English
Language : English
Default : No
Forced : No

Text #2
ID : 4
Format : PGS
Muxing mode : zlib
Codec ID : S_HDMV/PGS
Codec ID/Info : Picture based subtitle format used on BDs/HD-DVDs
Title : English SDH
Language : English
Default : No
Forced : No

Menu
00:00:00.000 : en:Chapter 01
00:09:23.729 : en:Chapter 02
00:19:57.070 : en:Chapter 03
00:28:45.014 : en:Chapter 04
00:35:35.049 : en:Chapter 05
00:44:05.768 : en:Chapter 06
00:55:54.726 : en:Chapter 07
01:03:21.047 : en:Chapter 08
01:12:08.198 : en:Chapter 09
01:21:58.204 : en:Chapter 10
01:31:15.261 : en:Chapter 11
01:36:01.672 : en:Chapter 12

DOWNLOAD


PART01 |||| PART02 |||| PART03 |||| PART04

PART01 |||| PART02 |||| PART03 |||| PART04

PART01 |||| PART02 |||| PART03 |||| PART04

PART01 |||| PART02 |||| PART03 |||| PART04

PART01 |||| PART02 |||| PART03 |||| PART04



Disable Comments
%d bloggers like this: