[MINI Super-HQ] Creed II (2018) ครี้ด 2 บ่มแชมป์เลือดนักชก [1080p] [พากย์ไทย 5.1 + เสียงอังกฤษ DTS] [บรรยายไทย + อังกฤษ] [เสียงไทย + ซับไทย] [OPENLOAD]

0

โหลดหนัง Creed II (2018) ครี้ด 2 บ่มแชมป์เลือดนักชก

Creed II (2018) 2h 10min | Drama, Sport | 10 January 2019 (Netherlands) Summary: Under the tutelage of Rocky Balboa, heavyweight contender Adonis Creed faces off against Viktor Drago, son of Ivan Drago.
Countries: USALanguages: English, Russian

เรื่องย่อ Creed II (2018) ครี้ด 2 บ่มแชมป์เลือดนักชก

เมื่อชีวิตของ อโดนิส มาอยู่ในจุดที่เขาต้องรับมือกับสิ่งสำคัญถึง 2 เรื่องในเวลาเดียวกันทั้งต้องเตรียมตัวฝึกฝนอย่างเข้มงวดเพื่อคืนสังเวียนอย่างยิ่งใหญ่ตามเป้าหมายชีวิตที่วางไว้ แถมยังต้องเผชิญหน้ากับคู่แข่งที่เคยเกี่ยวข้องกับครอบครัวของเขาในอดีตทำให้ศึกใหญ่ที่กำลังจะมาถึงยิ่งตึงเครียดและท้าทายเข้าไปอีกแต่ท่ามกลางความสับสน อโดนิส ยังมี ร็อคกี้ บัลบัว คอยยืดหยัดอยู่เคียงข้างพร้อมค้นหาคำตอบของชีวิตว่า’อะไรคือสิ่งสำคัญที่ทำให้คนเราลุกขึ้นสู้?!!! ผู้กำกับ สตีเว่น เคเปิล จูเนียร์ (Steven Caple Jr.) เตรียมพาทุกคนย้อนกลับไปยังจุดเริ่มต้นเพื่อเรียนรู้ว่ากว่าคนคนหนึ่งจะกลายเป็นแชมป์เปี้ยนผู้ยิ่งใหญ่ต้องผ่านอะไรมาบ้างและขอให้จำไว้ว่า ไม่ว่าจะไปอยู่ที่ไหนเราก็ไม่มีทางหนีอดีตของตัวเองได้ แต่นั่นจะทำให้เราเข้าใจถึงความหมายของคำว่า ‘ครอบครัว’ อย่างแท้จริง.

Complete name : [MINI Super-HQ]_Creed.II.2018.1080p.BrRip.DTS.x264.TH5.1.One2loadup.com.mkv
Format : Matroska
Format version : Version 4
File size : 4.33 GiB
Duration : 2 h 10 min
Overall bit rate : 4 773 kb/s
Movie name : [MINI Super-HQ]_Creed.II.2018.1080p.BrRip.DTS.x264.TH5.1.One2loadup.com
Encoded date : UTC 2019-10-22 09:57:48
Writing application : mkvmerge v38.0.0 (‘The Silent Type’) 64-bit
Writing library : libebml v1.3.9 + libmatroska v1.5.2
Cover : Yes
Attachments : cover.jpg

Video
ID : 1
Format : AVC
Format/Info : Advanced Video Codec
Format profile : [email protected]
Format settings : CABAC / 5 Ref Frames
Format settings, CABAC : Yes
Format settings, ReFrames : 5 frames
Codec ID : V_MPEG4/ISO/AVC
Duration : 2 h 10 min
Bit rate : 3 642 kb/s
Width : 1 920 pixels
Height : 804 pixels
Display aspect ratio : 2.40:1
Frame rate mode : Constant
Frame rate : 23.976 (24000/1001) FPS
Color space : YUV
Chroma subsampling : 4:2:0
Bit depth : 8 bits
Scan type : Progressive
Bits/(Pixel*Frame) : 0.098
Stream size : 3.31 GiB (76%)
Title : [MINI Super-HQ]_Creed.II.2018.1080p.BrRip.DTS.x264.TH5.1.One2loadup.com
Language : English
Default : Yes
Forced : No

Audio #1
ID : 2
Format : AC-3
Format/Info : Audio Coding 3
Commercial name : Dolby Digital
Codec ID : A_AC3
Duration : 2 h 10 min
Bit rate mode : Constant
Bit rate : 320 kb/s
Channel(s) : 6 channels
Channel layout : L R C LFE Ls Rs
Sampling rate : 44.1 kHz
Frame rate : 28.711 FPS (1536 SPF)
Bit depth : 16 bits
Compression mode : Lossy
Stream size : 298 MiB (7%)
Title : 5.1 AC3 TH 320k 297m
Language : Thai
Service kind : Complete Main
Default : No
Forced : No

Audio #2
ID : 3
Format : DTS
Format/Info : Digital Theater Systems
Codec ID : A_DTS
Duration : 2 h 10 min
Bit rate mode : Constant
Bit rate : 755 kb/s
Channel(s) : 6 channels
Channel layout : C L R Ls Rs LFE
Sampling rate : 48.0 kHz
Frame rate : 93.750 FPS (512 SPF)
Bit depth : 24 bits
Compression mode : Lossy
Stream size : 702 MiB (16%)
Title : English DTS
Language : English
Default : Yes
Forced : No

Text #1
ID : 4
Format : VobSub
Muxing mode : zlib
Codec ID : S_VOBSUB
Codec ID/Info : Picture based subtitle format used on DVDs
Duration : 2 h 7 min
Bit rate : 2 255 b/s
Count of elements : 1572
Stream size : 2.06 MiB (0%)
Title : Thai 480p
Language : Thai
Default : No
Forced : No

Text #2
ID : 5
Format : VobSub
Muxing mode : zlib
Codec ID : S_VOBSUB
Codec ID/Info : Picture based subtitle format used on DVDs
Duration : 2 h 7 min
Bit rate : 4 328 b/s
Count of elements : 1572
Stream size : 3.96 MiB (0%)
Title : Thai 720p
Language : Thai
Default : No
Forced : No

Text #3
ID : 6
Format : VobSub
Muxing mode : zlib
Codec ID : S_VOBSUB
Codec ID/Info : Picture based subtitle format used on DVDs
Duration : 2 h 7 min
Bit rate : 7 245 b/s
Count of elements : 1572
Stream size : 6.63 MiB (0%)
Title : Thai 1080p
Language : Thai
Default : Yes
Forced : Yes

Text #4
ID : 7
Format : VobSub
Muxing mode : zlib
Codec ID : S_VOBSUB
Codec ID/Info : Picture based subtitle format used on DVDs
Duration : 2 h 7 min
Bit rate : 7 244 b/s
Count of elements : 1572
Stream size : 6.63 MiB (0%)
Title : Thai 1080p Yellow
Language : Thai
Default : No
Forced : No

Text #5
ID : 8
Format : VobSub
Muxing mode : zlib
Codec ID : S_VOBSUB
Codec ID/Info : Picture based subtitle format used on DVDs
Duration : 2 h 7 min
Bit rate : 7 245 b/s
Count of elements : 1572
Stream size : 6.63 MiB (0%)
Title : Thai 1080p Out
Language : Thai
Default : No
Forced : No

Text #6
ID : 9
Format : VobSub
Muxing mode : zlib
Codec ID : S_VOBSUB
Codec ID/Info : Picture based subtitle format used on DVDs
Duration : 2 h 7 min
Bit rate : 10.5 kb/s
Count of elements : 1572
Stream size : 9.64 MiB (0%)
Title : Thai 1080p BIG
Language : Thai
Default : No
Forced : No

Text #7
ID : 10
Format : PGS
Muxing mode : zlib
Codec ID : S_HDMV/PGS
Codec ID/Info : Picture based subtitle format used on BDs/HD-DVDs
Duration : 2 h 7 min
Bit rate : 29.0 kb/s
Count of elements : 3144
Stream size : 26.5 MiB (1%)
Title : Thai PGS BluRay Master
Language : Thai
Default : No
Forced : No

Text #8
ID : 11
Format : PGS
Muxing mode : zlib
Codec ID : S_HDMV/PGS
Codec ID/Info : Picture based subtitle format used on BDs/HD-DVDs
Duration : 2 h 7 min
Bit rate : 29.0 kb/s
Count of elements : 3144
Stream size : 26.5 MiB (1%)
Title : Thai PGS Out
Language : Thai
Default : No
Forced : No

Text #9
ID : 12
Format : PGS
Muxing mode : zlib
Codec ID : S_HDMV/PGS
Codec ID/Info : Picture based subtitle format used on BDs/HD-DVDs
Duration : 2 h 9 min
Bit rate : 34.5 kb/s
Count of elements : 3557
Stream size : 31.9 MiB (1%)
Title : English
Language : English
Default : No
Forced : No

Menu
00:00:00.000 : :01
00:11:33.151 : :02
00:20:06.163 : :03
00:33:28.006 : :04
00:43:49.126 : :05
00:57:51.885 : :06
01:06:38.870 : :07
01:20:12.516 : :08
01:31:01.956 : :09
01:40:14.217 : :10
01:50:31.458 : :11
02:02:55.910 : :12

DOWNLOAD


PART01 |||| PART02 |||| PART03 |||| PART04 |||| PART05

PART01 |||| PART02 |||| PART03 |||| PART04 |||| PART05

PART01 |||| PART02 |||| PART03 |||| PART04 |||| PART05

PART01 |||| PART02 |||| PART03 |||| PART04 |||| PART05


Leave A Reply

Your email address will not be published.

%d bloggers like this: