[MINI Super-HQ] Cosmic Sin (2021) ภารกิจคนอึด ฝ่าสงครามดวงดาว [1080p] [พากย์ไทย 2.0 + เสียงอังกฤษ DTS] [บรรยายไทย + อังกฤษ] [เสียงไทยมาสเตอร์ + ซับไทย] [PANDAFILE]

0

โหลดหนัง Cosmic Sin (2021) ภารกิจคนอึด ฝ่าสงครามดวงดาว

Cosmic Sin (2021) 88min | Action, Adventure, Sci-Fi | March 12, 2021 (United States) Summary:
Countries: United StatesLanguages: English

เรื่องย่อ Cosmic Sin (2021) ภารกิจคนอึด ฝ่าสงครามดวงดาว

ในปี 2524 สี่ศตวรรษหลังจากที่มนุษย์เริ่มตั้งรกรากดาวเคราะห์รอบนอก พลเอกเจมส์ ฟอร์ดที่เกษียณอายุแล้วถูกเรียกให้กลับมารับใช้หลังจากกองยานเอเลี่ยนที่เป็นศัตรูโจมตีทหารบนดาวเคราะห์ที่ห่างไกล ภัยคุกคามต่อมนุษยชาติในไม่ช้าก็ทวีความรุนแรงขึ้นในสงครามระหว่างดวงดาวเนื่องจากฟอร์ดและทีมทหารชั้นยอด พยายามหยุดการโจมตีที่ใกล้เข้ามาก่อนที่จะสายเกินไป!

Complete name : [MINI Super-HQ]_Cosmic.Sin.2021.1080p.BrRip.DTS.x264.THM.One2loadup.com.mkv
Format : Matroska
Format version : Version 4
File size : 3.52 GiB
Duration : 1 h 28 min
Overall bit rate : 5 717 kb/s
Movie name : [MINI Super-HQ]_Cosmic.Sin.2021.1080p.BrRip.DTS.x264.THM.One2loadup.com
Encoded date : UTC 2021-07-03 19:29:26
Writing application : mkvmerge v9.8.0 (‘Kuglblids’) 64bit
Writing library : libebml v1.3.4 + libmatroska v1.4.5

Video
ID : 1
Format : AVC
Format/Info : Advanced Video Codec
Format profile : [email protected]
Format settings : CABAC / 5 Ref Frames
Format settings, CABAC : Yes
Format settings, Reference : 5 frames
Codec ID : V_MPEG4/ISO/AVC
Duration : 1 h 28 min
Bit rate : 4 500 kb/s
Width : 1 920 pixels
Height : 808 pixels
Display aspect ratio : 2.40:1
Frame rate mode : Constant
Frame rate : 23.976 (24000/1001) FPS
Color space : YUV
Chroma subsampling : 4:2:0
Bit depth : 8 bits
Scan type : Progressive
Bits/(Pixel*Frame) : 0.121
Stream size : 2.77 GiB (79%)
Title : [MINI Super-HQ]_Cosmic.Sin.2021.1080p.BrRip.DTS.x264.THM.One2loadup.com
Writing library : x264 core 160 r3000 33f9e14
Encoding settings : cabac=1 / ref=5 / deblock=1:-3:-3 / analyse=0x3:0x113 / me=umh / subme=10 / psy=1 / psy_rd=1.00:0.20 / mixed_ref=1 / me_range=32 / chroma_me=1 / trellis=2 / 8x8dct=1 / cqm=0 / deadzone=21,11 / fast_pskip=0 / chroma_qp_offset=-3 / threads=24 / lookahead_threads=6 / sliced_threads=0 / nr=0 / decimate=1 / interlaced=0 / bluray_compat=0 / constrained_intra=0 / bframes=12 / b_pyramid=2 / b_adapt=2 / b_bias=0 / direct=3 / weightb=1 / open_gop=0 / weightp=2 / keyint=240 / keyint_min=23 / scenecut=40 / intra_refresh=0 / rc=2pass / mbtree=0 / bitrate=4500 / ratetol=1.0 / qcomp=0.60 / qpmin=0 / qpmax=69 / qpstep=4 / cplxblur=20.0 / qblur=0.5 / ip_ratio=1.40 / pb_ratio=1.30 / aq=1:1.00
Language : English
Default : Yes
Forced : Yes

Audio #1
ID : 2
Format : AC-3
Format/Info : Audio Coding 3
Commercial name : Dolby Digital
Codec ID : A_AC3
Duration : 1 h 28 min
Bit rate mode : Constant
Bit rate : 384 kb/s
Channel(s) : 2 channels
Channel layout : L R
Sampling rate : 48.0 kHz
Frame rate : 31.250 FPS (1536 SPF)
Compression mode : Lossy
Stream size : 242 MiB (7%)
Title : Thai Master
Language : Thai
Service kind : Complete Main
Default : Yes
Forced : Yes

Audio #2
ID : 3
Format : DTS
Format/Info : Digital Theater Systems
Codec ID : A_DTS
Duration : 1 h 28 min
Bit rate mode : Constant
Bit rate : 755 kb/s
Channel(s) : 6 channels
Channel layout : C L R Ls Rs LFE
Sampling rate : 48.0 kHz
Frame rate : 93.750 FPS (512 SPF)
Bit depth : 24 bits
Compression mode : Lossy
Stream size : 476 MiB (13%)
Title : English DTS 5.1
Language : English
Default : No
Forced : No

Text #1
ID : 4
Format : VobSub
Codec ID : S_VOBSUB
Codec ID/Info : Picture based subtitle format used on DVDs
Duration : 1 h 25 min
Bit rate : 7 166 b/s
Count of elements : 778
Stream size : 4.39 MiB (0%)
Title : Thai 1080p
Language : Thai
Default : Yes
Forced : Yes

Text #2
ID : 5
Format : PGS
Codec ID : S_HDMV/PGS
Codec ID/Info : Picture based subtitle format used on BDs/HD-DVDs
Duration : 1 h 25 min
Bit rate : 30.2 kb/s
Count of elements : 1560
Stream size : 18.5 MiB (1%)
Title : Thai 1080p PGS
Language : Thai
Default : No
Forced : No

Text #3
ID : 6
Format : VobSub
Codec ID : S_VOBSUB
Codec ID/Info : Picture based subtitle format used on DVDs
Duration : 1 h 25 min
Bit rate : 7 066 b/s
Count of elements : 778
Stream size : 4.33 MiB (0%)
Title : Thai 1080p Out
Language : Thai
Default : No
Forced : No

Text #4
ID : 7
Format : PGS
Codec ID : S_HDMV/PGS
Codec ID/Info : Picture based subtitle format used on BDs/HD-DVDs
Duration : 1 h 25 min
Bit rate : 29.8 kb/s
Count of elements : 1560
Stream size : 18.2 MiB (1%)
Title : Thai 1080p Out PGS
Language : Thai
Default : No
Forced : No

Text #5
ID : 8
Format : VobSub
Codec ID : S_VOBSUB
Codec ID/Info : Picture based subtitle format used on DVDs
Duration : 1 h 25 min
Bit rate : 9 825 b/s
Count of elements : 778
Stream size : 6.01 MiB (0%)
Title : Thai 1080p Big [Yellow]
Language : Thai
Default : No
Forced : No

Text #6
ID : 9
Format : UTF-8
Codec ID : S_TEXT/UTF8
Codec ID/Info : UTF-8 Plain Text
Duration : 1 h 22 min
Bit rate : 43 b/s
Count of elements : 961
Stream size : 26.0 KiB (0%)
Title : English
Language : English
Default : No
Forced : No

Menu
00:00:00.000 : en:Chapter 01
00:07:28.656 : en:Chapter 02
00:14:01.340 : en:Chapter 03
00:19:38.010 : en:Chapter 04
00:29:02.907 : en:Chapter 05
00:35:38.511 : en:Chapter 06
00:41:59.892 : en:Chapter 07
00:50:04.876 : en:Chapter 08
00:57:09.551 : en:Chapter 09
01:04:17.144 : en:Chapter 10
01:09:38.757 : en:Chapter 11
01:16:40.178 : en:Chapter 12
01:25:28.748 : en:Chapter 13

DOWNLOAD


PART01 |||| PART02 |||| PART03 |||| PART04

PART01 |||| PART02 |||| PART03 |||| PART04

PART01 |||| PART02 |||| PART03 |||| PART04

PART01 |||| PART02 |||| PART03 |||| PART04

PART01 |||| PART02 |||| PART03 |||| PART04


Leave A Reply

อีเมล์ของคุณจะไม่แสดงให้เห็น Your email address will not be published.

%d bloggers like this: