[MINI Super-HQ] Comrades: Almost a Love Story (1996) เถียนมีมี่ 3,650 วัน รักเธอคนเดียว [1080p] [พากย์ไทย 2.0 + เสียงจีน DTS] [บรรยายไทย + อังกฤษ] [เสียงไทย + ซับไทย] [OPENLOAD]

0

โหลดหนัง Comrades: Almost a Love Story (1996) เถียนมีมี่ 3,650 วัน รักเธอคนเดียว

Tian mi mi (1996) 1h 58min | Drama, Romance | 2 November 1996 (Hong Kong) Summary: Two Chinese-mainlanders living in Hong Kong form a close friendship. Over the years this grows into love, but there are obstacles.
Countries: Hong KongLanguages: Cantonese, Mandarin, English

เรื่องย่อ Comrades: Almost a Love Story (1996) เถียนมีมี่ 3,650 วัน รักเธอคนเดียว

ภาพยนตร์ที่ทุกคนยอมรับว่าเป็น ภาพยนตร์รักที่ดีที่สุด จากผลงานการกำกับของ ปีเตอร์ ซาน แสดงนำโดยหลี่หมิง กับ จางม่านอวี้ ภาพยนตร์เรื่องนี้ได้รับรางวัลตุ๊กตาทองฮ่องกงครั้งที่ 16 ถึง 9 รางวัล หนังเรื่องนี้เปิดฉากวันที่ 1 มีนาคม 1986 หลี่เสี่ยวจิน (หลี่หมิง) กับ หลี่เฉียว (จางม่านอวี้) หวังที่จะมาขุดทองที่ฮ่องกง ทั้งสองต่างมาจากจีนแผ่นดินใหญ่ซึ่งในช่วงนั้นข้าวยากหมากแพง หลีเสี่ยวจิน มาฮ่องกงเพื่อเก็บหอมรอมริบ เพื่อจะได้พาแฟน เสี่ยวถิง ที่เมืองจีนมาแต่งงานด้วยที่ฮ่องกง โชคชะตากลับเล่นตลกเมื่อผู้ชายคนนี้ได้ไปพบกับหลี่เฉียว ที่ร้านแมคโดนัลด์ ผู้หญิงคนนี้ทำให้ชีวิตของผู้ชายคนนี้เปลี่ยนไป หลี่เสี่ยวจินก็สนิทกับหลี่เฉียว ไม่รู้เพราะว่าความเหงาหรือเพราะอะไร ทั้งๆ ที่หลี่เสี่ยวจินโดนหลี่เฉียวหลอกแต่ก็ยอมให้หลอก จนสุดท้ายพระเอกตั้งตัวได้พาแฟนเก่ามาแต่งงานด้วยที่ฮ่องกง หลี่เฉียวพบรักใหม่ แต่ทั้งสองยังมีเยื่อใย สุดท้ายความรักของทั้งสองจะสมหวังหรือไม่ต้องติดตาม

Complete name : [MINI Super-HQ]_Comrades.Almost.a.Love.Story.1996.1080p.BrRip.DTS.x264.One2loadup.com.mkv
Format : Matroska
Format version : Version 2
File size : 3.84 GiB
Duration : 1 h 55 min
Overall bit rate : 4 737 kb/s
Movie name : v
Encoded date : UTC 2017-03-10 15:44:47
Writing application : mkvmerge v5.8.0 (‘No Sleep / Pillow’) built on Sep 2 2012 15:37:04
Writing library : libebml v1.2.3 + libmatroska v1.3.0

Video
ID : 1
Format : AVC
Format/Info : Advanced Video Codec
Format profile : [email protected]
Format settings : CABAC / 4 Ref Frames
Format settings, CABAC : Yes
Format settings, ReFrames : 4 frames
Codec ID : V_MPEG4/ISO/AVC
Duration : 1 h 55 min
Bit rate : 3 630 kb/s
Width : 1 920 pixels
Height : 1 032 pixels
Display aspect ratio : 1.85:1
Frame rate mode : Constant
Frame rate : 24.000 FPS
Color space : YUV
Chroma subsampling : 4:2:0
Bit depth : 8 bits
Scan type : Progressive
Bits/(Pixel*Frame) : 0.076
Stream size : 2.97 GiB (77%)
Title : [MINI Super-HQ]_Comrades.Almost.a.Love.Story.1996.1080p.BrRip.DTS.x264.One2loadup.com
Writing library : x264 core 144 r2525 40bb568
Encoding settings : cabac=1 / ref=4 / deblock=1:1:1 / analyse=0x3:0x113 / me=umh / subme=10 / psy=1 / psy_rd=1.00:0.00 / mixed_ref=1 / me_range=48 / chroma_me=1 / trellis=2 / 8x8dct=1 / cqm=0 / deadzone=21,11 / fast_pskip=1 / chroma_qp_offset=-4 / threads=6 / lookahead_threads=1 / sliced_threads=0 / nr=0 / decimate=1 / interlaced=0 / bluray_compat=0 / constrained_intra=0 / bframes=4 / b_pyramid=2 / b_adapt=1 / b_bias=0 / direct=3 / weightb=1 / open_gop=0 / weightp=2 / keyint=250 / keyint_min=23 / scenecut=40 / intra_refresh=0 / rc_lookahead=40 / rc=2pass / mbtree=1 / bitrate=3630 / ratetol=1.0 / qcomp=0.60 / qpmin=0 / qpmax=69 / qpstep=4 / cplxblur=20.0 / qblur=0.5 / vbv_maxrate=14000 / vbv_bufsize=14000 / nal_hrd=none / filler=0 / ip_ratio=1.40 / aq=1:1.00
Language : Chinese
Default : Yes
Forced : Yes

Audio #1
ID : 2
Format : AC-3
Format/Info : Audio Coding 3
Commercial name : Dolby Digital
Codec ID : A_AC3
Duration : 1 h 55 min
Bit rate mode : Constant
Bit rate : 224 kb/s
Channel(s) : 2 channels
Channel layout : L R
Sampling rate : 48.0 kHz
Frame rate : 31.250 FPS (1536 SPF)
Bit depth : 16 bits
Compression mode : Lossy
Delay relative to video : 250 ms
Stream size : 186 MiB (5%)
Title : THAI DVD 2.0 @ 224 Kbps
Language : Thai
Service kind : Complete Main
Default : Yes
Forced : Yes

Audio #2
ID : 3
Format : DTS
Format/Info : Digital Theater Systems
Codec ID : A_DTS
Duration : 1 h 55 min
Bit rate mode : Constant
Bit rate : 755 kb/s
Channel(s) : 6 channels
Channel layout : C L R Ls Rs LFE
Sampling rate : 48.0 kHz
Frame rate : 93.750 FPS (512 SPF)
Bit depth : 24 bits
Compression mode : Lossy
Stream size : 626 MiB (16%)
Title : Chinese 5.1 @ 755 Kbps
Language : Chinese
Default : No
Forced : No

Text #1
ID : 4
Format : VobSub
Codec ID : S_VOBSUB
Codec ID/Info : Picture based subtitle format used on DVDs
Title : THAI 480p DVD Master
Language : Thai
Default : No
Forced : No

Text #2
ID : 5
Format : VobSub
Codec ID : S_VOBSUB
Codec ID/Info : Picture based subtitle format used on DVDs
Title : THAI 1080p
Language : Thai
Default : Yes
Forced : Yes

Text #3
ID : 6
Format : VobSub
Codec ID : S_VOBSUB
Codec ID/Info : Picture based subtitle format used on DVDs
Title : THAI 1080p Yellow
Language : Thai
Default : No
Forced : No

Text #4
ID : 7
Format : VobSub
Codec ID : S_VOBSUB
Codec ID/Info : Picture based subtitle format used on DVDs
Title : THAI 1080p Out
Language : Thai
Default : No
Forced : No

Text #5
ID : 8
Format : PGS
Codec ID : S_HDMV/PGS
Codec ID/Info : Picture based subtitle format used on BDs/HD-DVDs
Title : THAI PGS 1080p
Language : Thai
Default : No
Forced : No

Text #6
ID : 9
Format : PGS
Codec ID : S_HDMV/PGS
Codec ID/Info : Picture based subtitle format used on BDs/HD-DVDs
Title : THAI PGS 1080p Out
Language : Thai
Default : No
Forced : No

Text #7
ID : 10
Format : PGS
Codec ID : S_HDMV/PGS
Codec ID/Info : Picture based subtitle format used on BDs/HD-DVDs
Title : ENG PGS 1080p
Language : English
Default : No
Forced : No

Text #8
ID : 11
Format : PGS
Codec ID : S_HDMV/PGS
Codec ID/Info : Picture based subtitle format used on BDs/HD-DVDs
Title : Chinese PGS 1080p
Language : Chinese
Default : No
Forced : No

Menu
00:00:00.000 : en:00:00:00.000
00:09:12.583 : en:00:09:12.583
00:17:02.583 : en:00:17:02.583
00:31:25.625 : en:00:31:25.625
00:39:01.000 : en:00:39:01.000
00:47:17.000 : en:00:47:17.000
00:57:34.000 : en:00:57:34.000
01:04:37.750 : en:01:04:37.750
01:12:40.666 : en:01:12:40.666
01:21:50.458 : en:01:21:50.458
01:36:12.083 : en:01:36:12.083
01:45:32.291 : en:01:45:32.291

DOWNLOAD


PART01 |||| PART02 |||| PART03 |||| PART04

PART01 |||| PART02 |||| PART03 |||| PART04

PART01 |||| PART02 |||| PART03 |||| PART04

PART01 |||| PART02 |||| PART03 |||| PART04


Leave A Reply

Your email address will not be published.

%d bloggers like this: