[MINI Super-HQ] Come Away (2020) ปีเตอร์แพน กับ อลิซ ตะลุยแดนมหัศจรรย์ [1080p] [พากย์ไทย 2.0 + เสียงอังกฤษ DTS] [บรรยายไทย + อังกฤษ] [เสียงไทยมาสเตอร์ + ซับไทย] [USERLOAD]

0

โหลดหนัง Come Away (2020) ปีเตอร์แพน กับ อลิซ ตะลุยแดนมหัศจรรย์

Come Away (2020) 94min | Adventure, Drama, Fantasy | November 13, 2020 (United States) Summary: When their eldest brother dies, Peter and Alice seek to save their parents from despair until they are forced to choose between home and imagination, setting the stage for their iconic journeys into Wonderland and Neverland.
Countries: United KingdomLanguages: English

เรื่องย่อ Come Away (2020) ปีเตอร์แพน กับ อลิซ ตะลุยแดนมหัศจรรย์

กาลครั้งหนึ่งนานมาแล้ว ก่อนจะมี “อลิซในดินแดนมหัศจรรย์” และ “ปีเตอร์ แพน” รู้หรือไม่ว่าแท้จริงแล้ว อลิซ กับ ปีเตอร์ เป็นพี่น้องกัน ! ซึ่งพวกเขายังมีพี่ชายอีกคนชื่อ เดวิด สามพี่น้องเติบโตมาด้วยจินตนาการอันเหลือเชื่อจนพาพวกเขาลอยล่องไปสู่ดินแดนแห่งความฝันจนกระทั่งเกิดเหตุการณ์ไม่คาดฝันขึ้นจนครอบครัวตกอยู่ในสถานการณ์ลำบาก ปีเตอร์ กับ อลิซ กลายเป็นผู้นำในการประสานรอยร้าวในครอบครัวอีกครั้งด้วยจินตนาการอันไกลโพ้นของพวกเขาจนเป็นจุดเริ่มต้นให้ปีเตอร์ ได้เข้าไปในเนเวอร์แลนด์ส่วนอลิซแยกไปผจญภัยในวันเดอร์แลนด์แดนมหัศจรรย์…

Complete name : [MINI Super-HQ]_Come.Away.2020.1080p.BrRip.DTS.x264.THM.One2loadup.com.mkv
Format : Matroska
Format version : Version 4
File size : 3.48 GiB
Duration : 1 h 33 min
Overall bit rate : 5 310 kb/s
Movie name : [MINI Super-HQ]_Come.Away.2020.1080p.BrRip.DTS.x264.THM.One2loadup.com
Encoded date : UTC 2021-10-31 03:49:06
Writing application : mkvmerge v9.8.0 (‘Kuglblids’) 64bit
Writing library : libebml v1.3.4 + libmatroska v1.4.5

Video
ID : 1
Format : AVC
Format/Info : Advanced Video Codec
Format profile : [email protected]
Format settings : CABAC / 5 Ref Frames
Format settings, CABAC : Yes
Format settings, Reference : 5 frames
Codec ID : V_MPEG4/ISO/AVC
Duration : 1 h 33 min
Bit rate : 4 100 kb/s
Width : 1 920 pixels
Height : 804 pixels
Display aspect ratio : 2.40:1
Frame rate mode : Constant
Frame rate : 24.000 FPS
Color space : YUV
Chroma subsampling : 4:2:0
Bit depth : 8 bits
Scan type : Progressive
Bits/(Pixel*Frame) : 0.111
Stream size : 2.69 GiB (77%)
Title : [MINI Super-HQ]_Come.Away.2020.1080p.BrRip.DTS.x264.THM.One2loadup.com
Writing library : x264 core 157 r2935 545de2f
Encoding settings : cabac=1 / ref=5 / deblock=1:0:0 / analyse=0x1:0x131 / me=tesa / subme=11 / psy=1 / psy_rd=1.00:0.00 / mixed_ref=1 / me_range=24 / chroma_me=1 / trellis=2 / 8x8dct=0 / cqm=0 / deadzone=21,11 / fast_pskip=0 / chroma_qp_offset=-2 / threads=12 / lookahead_threads=3 / sliced_threads=0 / nr=0 / decimate=1 / interlaced=0 / bluray_compat=0 / constrained_intra=0 / bframes=16 / b_pyramid=2 / b_adapt=2 / b_bias=0 / direct=3 / weightb=1 / open_gop=0 / weightp=2 / keyint=240 / keyint_min=24 / scenecut=40 / intra_refresh=0 / rc_lookahead=60 / rc=2pass / mbtree=1 / bitrate=4100 / ratetol=1.0 / qcomp=0.60 / qpmin=0 / qpmax=69 / qpstep=4 / cplxblur=20.0 / qblur=0.5 / vbv_maxrate=50000 / vbv_bufsize=62500 / nal_hrd=none / filler=0 / ip_ratio=1.40 / aq=1:1.00
Language : English
Default : Yes
Forced : No
Color range : Limited
Color primaries : BT.709
Transfer characteristics : BT.709
Matrix coefficients : BT.709

Audio #1
ID : 2
Format : AC-3
Format/Info : Audio Coding 3
Commercial name : Dolby Digital
Codec ID : A_AC3
Duration : 1 h 33 min
Bit rate mode : Constant
Bit rate : 384 kb/s
Channel(s) : 2 channels
Channel layout : L R
Sampling rate : 48.0 kHz
Frame rate : 31.250 FPS (1536 SPF)
Compression mode : Lossy
Stream size : 258 MiB (7%)
Title : Thai Master
Language : Thai
Service kind : Complete Main
Default : Yes
Forced : Yes

Audio #2
ID : 3
Format : DTS
Format/Info : Digital Theater Systems
Codec ID : A_DTS
Duration : 1 h 33 min
Bit rate mode : Constant
Bit rate : 755 kb/s
Channel(s) : 6 channels
Channel layout : C L R Ls Rs LFE
Sampling rate : 48.0 kHz
Frame rate : 93.750 FPS (512 SPF)
Bit depth : 24 bits
Compression mode : Lossy
Stream size : 507 MiB (14%)
Title : English DTS-5.1
Language : English
Default : No
Forced : No

Text #1
ID : 4
Format : PGS
Codec ID : S_HDMV/PGS
Codec ID/Info : Picture based subtitle format used on BDs/HD-DVDs
Duration : 1 h 29 min
Bit rate : 26.2 kb/s
Count of elements : 1636
Stream size : 16.8 MiB (0%)
Title : Thai 1080p PGS
Language : Thai
Default : Yes
Forced : Yes

Text #2
ID : 5
Format : VobSub
Codec ID : S_VOBSUB
Codec ID/Info : Picture based subtitle format used on DVDs
Duration : 1 h 29 min
Bit rate : 6 193 b/s
Count of elements : 818
Stream size : 3.98 MiB (0%)
Title : Thai 1080p
Language : Thai
Default : No
Forced : No

Text #3
ID : 6
Format : PGS
Codec ID : S_HDMV/PGS
Codec ID/Info : Picture based subtitle format used on BDs/HD-DVDs
Duration : 1 h 29 min
Bit rate : 25.2 kb/s
Count of elements : 1636
Stream size : 16.2 MiB (0%)
Title : Thai 1080p Out PGS
Language : Thai
Default : No
Forced : No

Text #4
ID : 7
Format : VobSub
Codec ID : S_VOBSUB
Codec ID/Info : Picture based subtitle format used on DVDs
Duration : 1 h 29 min
Bit rate : 5 927 b/s
Count of elements : 818
Stream size : 3.81 MiB (0%)
Title : Thai 1080p Out
Language : Thai
Default : No
Forced : No

Text #5
ID : 8
Format : VobSub
Codec ID : S_VOBSUB
Codec ID/Info : Picture based subtitle format used on DVDs
Duration : 1 h 29 min
Bit rate : 8 418 b/s
Count of elements : 818
Stream size : 5.41 MiB (0%)
Title : Thai 1080p Big [Yellow]
Language : Thai
Default : No
Forced : No

Text #6
ID : 9
Format : UTF-8
Codec ID : S_TEXT/UTF8
Codec ID/Info : UTF-8 Plain Text
Duration : 1 h 26 min
Bit rate : 36 b/s
Count of elements : 812
Stream size : 23.1 KiB (0%)
Title : English SRT
Language : English
Default : No
Forced : No

Menu
00:00:00.000 : en:Chapter 01
00:12:19.208 : en:Chapter 02
00:23:21.417 : en:Chapter 03
00:34:44.750 : en:Chapter 04
00:46:40.667 : en:Chapter 05
01:00:24.208 : en:Chapter 06
01:13:51.417 : en:Chapter 07
01:27:52.000 : en:Chapter 08

DOWNLOAD


PART01 |||| PART02 |||| PART03 |||| PART04

PART01 |||| PART02 |||| PART03 |||| PART04

PART01 |||| PART02 |||| PART03 |||| PART04

PART01 |||| PART02 |||| PART03 |||| PART04

PART01 |||| PART02 |||| PART03 |||| PART04


Leave A Reply

อีเมล์ของคุณจะไม่แสดงให้เห็น Your email address will not be published.

%d bloggers like this: