[MINI Super-HQ] Classmates Minus (2020) เพื่อนร่วมรุ่น [1080p] [NETFLIX] [พากย์จีน 5.1] [Soundtrack บรรยายไทย + อังกฤษ] [เสียงจีน + ซับไทย] [DOSYAUPLOAD]

0

โหลดหนัง Classmates Minus (2020) เพื่อนร่วมรุ่น

Classmates Minus | February 20, 2021 (United States) Summary: Four high school buddies -- a director, a temp worker, an insurance salesman, and a paper craftsman -- grapple with unfulfilled dreams amid middle age ennui.
Countries: TaiwanLanguages: Chinese, Min Nan

เรื่องย่อ Classmates Minus (2020) เพื่อนร่วมรุ่น

ผู้กำกับหนัง พนักงานชั่วคราว คนขายประกันและคนพับกระดาษกงเต็ก สี่เพื่อนเก่าสมัยเรียนกลับมาพบกันอีกครั้ง ทุกคนต่างแบกปัญหาวัยกลางคนและความฝันที่ยังทำไม่สำเร็จมาด้วย

Complete name : [MINI Super-HQ]_Classmates.Minus.2020.1080p.NF.WEB-DL.EAC3.x264.Subthai.One2loadup.com.mkv
Format : Matroska
Format version : Version 4
File size : 4.76 GiB
Duration : 2 h 2 min
Overall bit rate : 5 560 kb/s
Movie name : [MINI Super-HQ]_Classmates.Minus.2020.1080p.NF.WEB-DL.EAC3.x264.Subthai.One2loadup.com
Encoded date : UTC 2021-03-13 15:16:13
Writing application : mkvmerge v55.0.0 (‘Waiting For Space’) 64-bit
Writing library : libebml v1.4.2 + libmatroska v1.6.4

Video
ID : 1
Format : AVC
Format/Info : Advanced Video Codec
Format profile : [email protected]
Format settings : CABAC / 3 Ref Frames
Format settings, CABAC : Yes
Format settings, ReFrames : 3 frames
Codec ID : V_MPEG4/ISO/AVC
Duration : 2 h 2 min
Bit rate : 4 825 kb/s
Width : 1 920 pixels
Height : 800 pixels
Display aspect ratio : 2.40:1
Frame rate mode : Constant
Frame rate : 24.000 FPS
Color space : YUV
Chroma subsampling : 4:2:0
Bit depth : 8 bits
Scan type : Progressive
Bits/(Pixel*Frame) : 0.131
Stream size : 4.13 GiB (87%)
Title : [MINI Super-HQ]_Classmates.Minus.2020.1080p.NF.WEB-DL.EAC3.x264.Subthai.One2loadup.com
Language : Chinese
Default : Yes
Forced : No

Audio
ID : 2
Format : E-AC-3
Format/Info : Enhanced AC-3
Commercial name : Dolby Digital Plus
Codec ID : A_EAC3
Duration : 2 h 2 min
Bit rate mode : Constant
Bit rate : 640 kb/s
Channel(s) : 6 channels
Channel layout : L R C LFE Ls Rs
Sampling rate : 48.0 kHz
Frame rate : 31.250 FPS (1536 SPF)
Compression mode : Lossy
Stream size : 561 MiB (12%)
Title : E-AC3 Chinese
Language : Chinese
Service kind : Complete Main
Default : Yes
Forced : No

Text #1
ID : 3
Format : VobSub
Muxing mode : zlib
Codec ID : S_VOBSUB
Codec ID/Info : Picture based subtitle format used on DVDs
Duration : 2 h 2 min
Bit rate : 12.7 kb/s
Count of elements : 2046
Stream size : 11.1 MiB (0%)
Title : Sub Thai 1080p
Language : Thai
Default : No
Forced : No

Text #2
ID : 4
Format : UTF-8
Codec ID : S_TEXT/UTF8
Codec ID/Info : UTF-8 Plain Text
Duration : 2 h 2 min
Bit rate : 132 b/s
Count of elements : 2046
Stream size : 119 KiB (0%)
Title : Sub Thai SRT
Language : Thai
Default : No
Forced : No

Text #3
ID : 5
Format : PGS
Muxing mode : zlib
Codec ID : S_HDMV/PGS
Codec ID/Info : Picture based subtitle format used on BDs/HD-DVDs
Duration : 2 h 2 min
Bit rate : 38.3 kb/s
Count of elements : 4092
Stream size : 33.6 MiB (1%)
Title : Sub Thai PGS
Language : Thai
Default : No
Forced : No

Text #4
ID : 6
Format : PGS
Muxing mode : zlib
Codec ID : S_HDMV/PGS
Codec ID/Info : Picture based subtitle format used on BDs/HD-DVDs
Duration : 2 h 2 min
Bit rate : 63.6 kb/s
Count of elements : 4092
Stream size : 55.7 MiB (1%)
Title : Sub Thai PGS NETFLIX
Language : Thai
Default : Yes
Forced : No

Text #5
ID : 7
Format : VobSub
Muxing mode : zlib
Codec ID : S_VOBSUB
Codec ID/Info : Picture based subtitle format used on DVDs
Duration : 2 h 1 min
Bit rate : 12.4 kb/s
Count of elements : 2063
Stream size : 10.8 MiB (0%)
Title : Sub English 1080p
Language : English
Default : No
Forced : No

Text #6
ID : 8
Format : UTF-8
Codec ID : S_TEXT/UTF8
Codec ID/Info : UTF-8 Plain Text
Duration : 2 h 1 min
Bit rate : 58 b/s
Count of elements : 2063
Stream size : 52.1 KiB (0%)
Title : Sub English SRT
Language : English
Default : No
Forced : No

Text #7
ID : 9
Format : PGS
Muxing mode : zlib
Codec ID : S_HDMV/PGS
Codec ID/Info : Picture based subtitle format used on BDs/HD-DVDs
Duration : 2 h 1 min
Bit rate : 34.9 kb/s
Count of elements : 4126
Stream size : 30.4 MiB (1%)
Title : Sub English PGS
Language : English
Default : No
Forced : No

DOWNLOAD


PART01 |||| PART02 |||| PART03 |||| PART04 |||| PART05

PART01 |||| PART02 |||| PART03 |||| PART04 |||| PART05

PART01 |||| PART02 |||| PART03 |||| PART04 |||| PART05

PART01 |||| PART02 |||| PART03 |||| PART04 |||| PART05

PART01 |||| PART02 |||| PART03 |||| PART04 |||| PART05


Leave A Reply

อีเมล์ของคุณจะไม่แสดงให้เห็น Your email address will not be published.

%d bloggers like this: