[MINI Super-HQ] Clash Of The Titans (2010) สงครามมหาเทพประจัญบาน [1080p] [พากย์ไทย 5.1 + เสียงอังกฤษ DTS] [บรรยายไทย + อังกฤษ] [เสียงไทย + ซับไทย] [PANDAFILE]

7

โหลดหนัง Clash Of The Titans (2010) สงครามมหาเทพประจัญบาน

Clash of the Titans | April 2, 2010 (United States) Summary: Perseus, a demigod and the son of Zeus, battles the minions of Hades and the Underworld in order to stop them from conquering Olympus and Earth.
Countries: United States, United Kingdom, AustraliaLanguages: English

เรื่องย่อ Clash Of The Titans (2010) สงครามมหาเทพประจัญบาน

เรื่องรวมหากาพย์การต่อสู้ครั้งยิ่งใหญ่เพื่อช่วงชิง อำนาจของบรรดาผู้คนต่อ เหล่ากษัตริย์ และของเหล่ากษัตริย์ต่อทวยเทพแต่สงครามระหว่างทวยเทพ เองนั้นอาจทำลายล้างโลกได้ แม้ถือกำเนิดจากเทพแต่ถูกเลี้ยงดูให้เป็นมนุษย์ เพอร์ซีอุส (แซม เวิร์ธทิงตัน)ไร้หนทางที่จะปกป้องครอบครัวของเขาจาก เฮเดส (ราล์ฟ ฟีนส์) เทพผู้โหดเหี้ยมแห่งยมโลก เมื่อไม่เหลืออะไรให้สูญเสียเพอร์ซีอุสจึงอาสาเป็นผู ้นำในภารกิจเสี่ยงภยันตรายเพื่อเอาชนะเฮเดสก่อนที่ เขาจะสามารถยึดอำนาจจาก ซุส (เลียม นีสัน)และเปิดประตูนรกขึ้นบนโลก เพอร์ซีอุสออกเดินทางสู่โลกต้องห้ามเบื้องล่างในการเ ป็นผู้นำกองทัพนักรบผู้ กล้าเพื่อต่อสู้กับเหล่าปีศาจนอกรีตและสัตว์ร้ายน่าสะพรึงกลัว เขาจะมีทางรอดได้หากเขาสามารถยอมรับพลังแห่งเทพท้าทา ยโชคชะตาและลิขิตชีวิตด้วยตนเอง!!!

Complete name : [MINI Super-HQ]_Clash.Of.The.Titans.2010.1080p.DTS.x264.BD.One2loadup.com.mkv
Format : Matroska
Format version : Version 4
File size : 4.30 GiB
Duration : 1 h 46 min
Overall bit rate : 5 798 kb/s
Movie name : [MINI Super-HQ]_Clash.Of.The.Titans.2010.1080p.DTS.x264.BD.One2loadup.com
Encoded date : UTC 2015-06-07 02:19:33
Writing application : mkvmerge v7.8.0 (‘River Man’) 32bit built on Mar 27 2015 16:18:02
Writing library : libebml v1.3.1 + libmatroska v1.4.2
Cover : Yes
Attachments : cover_land.png / cover.png

Video
ID : 1
Format : AVC
Format/Info : Advanced Video Codec
Format profile : [email protected]
Format settings : CABAC / 5 Ref Frames
Format settings, CABAC : Yes
Format settings, ReFrames : 5 frames
Codec ID : V_MPEG4/ISO/AVC
Duration : 1 h 46 min
Bit rate : 4 550 kb/s
Width : 1 920 pixels
Height : 800 pixels
Display aspect ratio : 2.40:1
Frame rate mode : Constant
Frame rate : 23.976 (24000/1001) FPS
Color space : YUV
Chroma subsampling : 4:2:0
Bit depth : 8 bits
Scan type : Progressive
Bits/(Pixel*Frame) : 0.124
Stream size : 3.32 GiB (77%)
Title : [MINI Super-HQ]_Clash.Of.The.Titans.2010.1080p.DTS.x264.BD.One2loadup.com
Writing library : x264 core 146 r2538 121396c
Encoding settings : cabac=1 / ref=5 / deblock=1:-3:-3 / analyse=0x3:0x113 / me=umh / subme=11 / psy=1 / psy_rd=1.00:0.20 / mixed_ref=1 / me_range=48 / chroma_me=1 / trellis=2 / 8x8dct=1 / cqm=0 / deadzone=21,11 / fast_pskip=0 / chroma_qp_offset=-3 / threads=24 / lookahead_threads=2 / sliced_threads=0 / nr=0 / decimate=1 / interlaced=0 / bluray_compat=0 / constrained_intra=0 / bframes=5 / b_pyramid=2 / b_adapt=2 / b_bias=0 / direct=3 / weightb=1 / open_gop=0 / weightp=2 / keyint=250 / keyint_min=23 / scenecut=40 / intra_refresh=0 / rc_lookahead=100 / rc=2pass / mbtree=1 / bitrate=4550 / ratetol=1.0 / qcomp=0.60 / qpmin=0 / qpmax=69 / qpstep=4 / cplxblur=20.0 / qblur=0.5 / vbv_maxrate=99999 / vbv_bufsize=99999 / nal_hrd=none / filler=0 / ip_ratio=1.40 / aq=1:1.00
Language : English
Default : Yes
Forced : No

Audio #1
ID : 2
Format : AC-3
Format/Info : Audio Coding 3
Commercial name : Dolby Digital
Codec ID : A_AC3
Duration : 1 h 46 min
Bit rate mode : Constant
Bit rate : 448 kb/s
Channel(s) : 6 channels
Channel layout : L R C LFE Ls Rs
Sampling rate : 48.0 kHz
Frame rate : 31.250 FPS (1536 SPF)
Bit depth : 16 bits
Compression mode : Lossy
Stream size : 340 MiB (8%)
Title : AC3 BD MASTER
Language : Thai
Service kind : Complete Main
Default : Yes
Forced : Yes

Audio #2
ID : 3
Format : DTS
Format/Info : Digital Theater Systems
Codec ID : A_DTS
Duration : 1 h 46 min
Bit rate mode : Constant
Bit rate : 755 kb/s
Channel(s) : 6 channels
Channel layout : C L R Ls Rs LFE
Sampling rate : 48.0 kHz
Frame rate : 93.750 FPS (512 SPF)
Bit depth : 24 bits
Compression mode : Lossy
Stream size : 573 MiB (13%)
Title : DTS
Language : English
Default : No
Forced : No

Text #1
ID : 4
Format : VobSub
Codec ID : S_VOBSUB
Codec ID/Info : Picture based subtitle format used on DVDs
Title : 1080P
Language : Thai
Default : Yes
Forced : Yes

Text #2
ID : 5
Format : VobSub
Codec ID : S_VOBSUB
Codec ID/Info : Picture based subtitle format used on DVDs
Title : 1080P YELLOW
Language : Thai
Default : No
Forced : No

Text #3
ID : 6
Format : VobSub
Codec ID : S_VOBSUB
Codec ID/Info : Picture based subtitle format used on DVDs
Title : 480P
Language : Thai
Default : No
Forced : No

Text #4
ID : 7
Format : UTF-8
Codec ID : S_TEXT/UTF8
Codec ID/Info : UTF-8 Plain Text
Title : SRT
Language : English
Default : No
Forced : No

Text #5
ID : 8
Format : PGS
Codec ID : S_HDMV/PGS
Codec ID/Info : Picture based subtitle format used on BDs/HD-DVDs
Title : BD MASTER
Language : Thai
Default : No
Forced : No

Text #6
ID : 9
Format : PGS
Codec ID : S_HDMV/PGS
Codec ID/Info : Picture based subtitle format used on BDs/HD-DVDs
Title : SDH BD MASTER
Language : English
Default : No
Forced : No

Menu
00:00:00.000 : en:00:00:00.000
00:06:37.292 : en:00:06:37.292
00:13:24.583 : en:00:13:24.583
00:23:58.875 : en:00:23:58.875
00:33:57.042 : en:00:33:57.042
00:40:30.375 : en:00:40:30.375
00:50:12.583 : en:00:50:12.583
00:59:04.375 : en:00:59:04.375
01:04:50.500 : en:01:04:50.500
01:14:54.542 : en:01:14:54.542
01:19:41.292 : en:01:19:41.292
01:26:44.417 : en:01:26:44.417
01:32:30.333 : en:01:32:30.333
01:38:30.250 : en:01:38:30.250
01:45:03.875 : en:01:45:03.875
01:52:01.542 : en:01:52:01.542

DOWNLOAD


PART01 |||| PART02 |||| PART03 |||| PART04 |||| PART05

PART01 |||| PART02 |||| PART03 |||| PART04 |||| PART05

PART01 |||| PART02 |||| PART03 |||| PART04 |||| PART05

PART01 |||| PART02 |||| PART03 |||| PART04 |||| PART05

PART01 |||| PART02 |||| PART03 |||| PART04 |||| PART05


7 Comments
  1. Beaver TV
    Beaver TV says

    พาท 4 โหลด ไม่ได้ ซักเวบเลยคับ

    1. Admin
      Admin says

      แก้ไขเรียบร้อยฮ๊ะ

  2. OTK TV
    OTK TV says

    พาท 3 โหลด ไม่ได้ ซักเวบเลยคับ

    1. Admin
      Admin says

      แก้ไขเรียบร้อยฮ๊ะ

    2. OTK TV
      OTK TV says

      ขอบคุณครับ

  3. ธารา says

    ลองหมดแล้วครับ เสียทุกเซิฟฯเลยครับ พอขุดไปถึงหน้าโหลดมันโหลดไม่ได้

    1. Admin
      Admin says

      แก้ไขเรียบร้อย แนะนำแจ้งที่เดียวก็ได้ฮ๊ะ

Leave A Reply

อีเมล์ของคุณจะไม่แสดงให้เห็น Your email address will not be published.

%d bloggers like this: